<?xml version="1.0" standalone="no"?>
<!DOCTYPE svg PUBLIC "-//W3C//DTD SVG 1.1//EN" "http://www.w3.org/Graphics/SVG/1.1/DTD/svg11.dtd" >
<svg xmlns="http://www.w3.org/2000/svg">
<metadata>
<json>
{
	"fontFamily": "ecommerce",
	"majorVersion": 1,
	"minorVersion": 0,
	"version": "Version 1.0",
	"fontId": "ecommerce",
	"psName": "ecommerce",
	"subFamily": "Regular",
	"fullName": "ecommerce",
	"description": "Font generated by IcoMoon."
}
</json>
</metadata>
<defs>
<font id="ecommerce" horiz-adv-x="512">
<font-face units-per-em="512" ascent="480" descent="-32" />
<missing-glyph horiz-adv-x="512" />
<glyph unicode="&#x20;" d="" horiz-adv-x="256" />
<glyph unicode="&#xe600;" d="M256 455.68l61.133-172.083h164.147l-133.939-101.069 47.872-177.408-139.213 106.342-139.213-106.342 47.872 177.408-133.939 101.069h164.147z" />
<glyph unicode="&#xe601;" d="M481.28 283.597h-164.173l-61.133 172.083-61.107-172.083h-164.147l133.913-101.069-47.872-177.408 139.213 106.342 139.213-106.342-47.872 177.408 133.965 101.069zM255.975 161.689l-77.107-64.025 31.795 91.187-72.986 58.88 90.137-2.56 28.135 103.424 28.16-103.424 90.137 2.56-72.986-58.88 31.821-91.187-77.107 64.025z" />
<glyph unicode="&#xe602;" d="M349.389 297.907c-3.379 9.088 90.624 93.056 35.789 161.075-12.851 15.898-56.346-76.185-118.144-117.862-34.073-22.989-113.433-71.936-113.433-98.995v-175.13c0-32.538 125.798-66.995 221.414-66.995 35.046 0 85.786 219.52 85.786 254.413 0 34.995-108.032 34.381-111.411 43.495zM128 295.475c-16.819 0-76.8-10.24-76.8-79.923v-124.109c0-69.683 59.981-77.337 76.8-77.337s-25.6 14.643-25.6 57.831v163.149c0 45.261 42.419 60.391 25.6 60.391z" />
<glyph unicode="&#xe603;" d="M301.44 179.507v-111.539l184.96 171.264-184.96 165.248v-98.969c-224.64 0-275.84-249.191-275.84-249.191 63.565 112.384 153.907 123.187 275.84 123.187z" />
<glyph unicode="&#xe604;" d="M463.923 392.525c-7.577 6.553-48.793 37.76-56.499 44.391s-19.738 8.525-28.237 8.525h-246.375c-8.474 0-20.531-1.869-28.211-8.525-7.706-6.656-48.922-37.863-56.499-44.391s-13.901-16.409-11.879-30.489c2.023-14.080 49.587-332.109 49.587-332.109 2.662-8.013 11.776-14.567 20.275-14.567h299.853c8.499 0 17.613 6.579 20.275 14.567 0 0 47.539 318.029 49.587 332.109 1.997 14.080-4.301 23.936-11.878 30.489zM256 169.779c-83.149 0-100.941 117.683-104.627 141.927h47.027c7.091-35.379 23.194-95.847 57.6-95.847s50.535 60.467 57.626 95.847h47.002c-3.687-24.243-21.478-141.927-104.627-141.927zM75.853 358.4l56.474 58.88h247.347l56.474-58.88h-360.295z" />
<glyph unicode="&#xe605;" d="M496.992 224c0-34-19.632-62.832-48.8-74.272v-37.28c0-8.8-7.136-15.936-15.92-15.936h-368.528c-8.816 0-15.936 7.136-15.936 15.936v37.28c-29.184 11.44-48.8 40.272-48.8 74.272s19.632 62.832 48.816 74.272v37.28c0 8.816 7.12 15.936 15.936 15.936h368.528c8.784 0 15.92-7.12 15.92-15.936v-37.28c29.168-11.44 48.784-40.272 48.784-74.272zM191.232 224h-63.744v-15.936h63.744v15.936zM266.912 278.336c-4.496 4.944-10.672 7.408-18.512 7.408-7.792 0-13.936-2.464-18.416-7.408-4.496-4.928-6.752-12.512-6.752-22.752 0-10.288 2.256-17.888 6.752-22.832 4.48-4.928 7.696-7.392 15.664-7.392 7.68 0 16.784 2.464 21.28 7.392 4.48 4.944 6.736 12.544 6.736 22.832-0.016 10.24-2.272 17.84-6.752 22.752zM321.12 288.24l-81.76-128.352h16.192l81.36 128.352h-15.792zM346.576 214.608c-4.48 4.928-10.672 7.392-18.512 7.392-7.776 0-13.936-2.464-18.432-7.392-4.48-4.944-6.72-12.512-6.72-22.752 0-10.288 2.24-17.904 6.72-22.832 4.496-4.944 10.72-7.408 18.688-7.408 7.68 0 13.776 2.464 18.272 7.408 4.48 4.928 6.736 12.544 6.736 22.832-0.016 10.24-2.272 17.808-6.752 22.752zM327.92 173.952c-2.304 0-4.096 0.976-5.392 2.896-1.712 2.512-2.576 7.504-2.576 14.976s0.864 12.48 2.576 15.040c1.248 1.872 3.040 2.832 5.392 2.832s4.176-0.96 5.472-2.832c1.664-2.56 2.496-7.584 2.496-15.040s-0.864-12.48-2.576-15.040c-1.248-1.888-3.040-2.832-5.392-2.832zM248.256 237.68c-2.304 0-4.096 0.976-5.392 2.912-1.712 2.512-2.576 7.504-2.576 14.976s0.864 12.48 2.576 15.040c1.248 1.872 3.040 2.816 5.392 2.816s4.16-0.944 5.472-2.816c1.664-2.56 2.496-7.584 2.496-15.040s-0.864-12.48-2.576-15.040c-1.264-1.888-3.056-2.848-5.392-2.848z" />
<glyph unicode="&#xe606;" d="M367.334 149.709l-70.605 80.691 70.605 80.691c12.007 12.007 12.007 31.463 0 43.443s-31.462 11.981-43.443 0l-67.891-77.593-67.865 77.568c-12.006 12.006-31.463 12.006-43.443 0s-11.981-31.463 0-43.443l70.579-80.666-70.605-80.691c-11.981-12.007-11.981-31.411 0-43.392 12.006-12.007 31.463-12.007 43.443 0l67.891 77.543 67.865-77.543c12.007-12.007 31.462-12.007 43.443 0s12.007 31.385 0.026 43.392z" />
<glyph unicode="&#xe607;" d="M409.6 435.2h-307.2c-28.16 0-51.2-23.040-51.2-51.2v-307.2c0-28.16 23.040-51.2 51.2-51.2h307.2c28.16 0 51.2 23.040 51.2 51.2v307.2c0 28.16-23.040 51.2-51.2 51.2zM384 204.8h-102.4v-102.4h-51.2v102.4h-102.4v51.2h102.4v102.4h51.2v-102.4h102.4v-51.2z" />
<glyph unicode="&#xe608;" d="M409.6 435.2h-307.2c-28.16 0-51.2-23.040-51.2-51.2v-307.2c0-28.16 23.040-51.2 51.2-51.2h307.2c28.16 0 51.2 23.040 51.2 51.2v307.2c0 28.16-23.040 51.2-51.2 51.2zM334.361 107.801l-78.362 78.336-78.362-78.362-44.237 44.262 78.336 78.362-78.336 78.336 44.237 44.263 78.362-78.336 78.336 78.336 44.262-44.237-78.336-78.362 78.361-78.362-44.262-44.237z" />
<glyph unicode="&#xe609;" d="M256 445.44c-118.784 0-215.040-96.307-215.040-215.040 0-118.784 96.281-215.040 215.040-215.040s215.040 96.281 215.040 215.040c0 118.758-96.281 215.040-215.040 215.040zM282.163 204.237v-103.091h-52.327v103.091h-103.117v52.327h103.091v103.117h52.352v-103.091h103.091v-52.352h-103.091z" />
<glyph unicode="&#xe60a;" d="M256 445.44c-118.784 0-215.040-96.307-215.040-215.040 0-118.784 96.281-215.040 215.040-215.040s215.040 96.281 215.040 215.040c0 118.758-96.281 215.040-215.040 215.040zM300.262 230.4l78.362-78.362-44.262-44.262-78.362 78.362-78.362-78.361-44.237 44.262 78.336 78.362-78.336 78.336 44.237 44.262 78.362-78.336 78.361 78.336 44.262-44.237-78.362-78.362z" />
<glyph unicode="&#xe60b;" d="M389.094 256h-107.52v107.52c0 14.131-11.443 15.36-25.6 15.36-14.131 0-25.6-1.203-25.6-15.36v-107.52h-107.495c-14.157 0-15.36-11.469-15.36-25.6s1.203-25.6 15.36-25.6h107.495v-107.52c0-14.131 11.469-15.36 25.6-15.36 14.157 0 25.6 1.229 25.6 15.36v107.52h107.52c14.157 0 15.385 11.469 15.385 25.6s-1.229 25.6-15.385 25.6z" />
<glyph unicode="&#xe60c;" d="M162.637 162.867c3.353-9.088-90.624-93.031-35.789-161.049 12.851-15.923 56.346 76.16 118.144 117.863 34.074 22.989 113.408 71.962 113.408 98.995v175.104c0 32.563-125.773 67.021-221.389 67.021-35.047 0-85.811-219.52-85.811-254.413 0-34.995 108.058-34.381 111.437-43.52zM384 165.325c16.845 0 76.8 10.214 76.8 79.923v124.083c0 69.683-59.955 77.363-76.8 77.363-16.819 0 25.6-14.669 25.6-57.83v-163.149c0-45.261-42.419-60.391-25.6-60.391z" />
<glyph unicode="&#xe60d;" d="M473.241 366.592c-292.045-116.915-173.747 197.76-400.256 32.103l-47.386-16.998 93.85-368.896h51.686l-45.952 180.685c202.086 169.421 120.269-184.601 359.322 162.739 5.555 8.064-1.869 14.131-11.264 10.368z" />
<glyph unicode="&#xe60e;" d="M493.849 476.007c-2.765 8.064-11.495 12.313-19.481 9.523s-12.185-11.623-9.395-19.712c23.552-68.352-23.194-119.399-58.803-146.714l-14.413 20.839c-4.813 6.963-15.667 12.774-24.064 12.903l-80.768-0.384c-8.397 0.128-20.889-3.763-27.801-8.627l-237.977-168.653c-11.52-8.166-14.361-24.243-6.272-35.917l108.186-156.339c8.064-11.674 21.043-10.266 32.563-2.125l237.978 168.679c6.912 4.864 14.771 15.462 17.562 23.501l25.293 80.538c2.739 8.038 1.075 20.327-3.738 27.289l-8.806 12.697c47.846 36.992 97.51 102.451 69.939 182.502zM383.13 236.493c-18.457-13.082-43.879-8.525-56.807 10.137-12.902 18.663-8.423 44.39 10.035 57.472 14.643 10.394 33.664 9.625 47.36-0.461-6.912-4.198-11.623-6.605-12.519-7.040-7.629-3.635-10.906-12.851-7.296-20.582 2.611-5.607 8.089-8.909 13.849-8.909 2.176 0 4.403 0.486 6.502 1.485 4.889 2.329 10.189 5.171 15.693 8.473 2.457-15.181-3.533-31.155-16.819-40.576z" />
<glyph unicode="&#xe60f;" d="M478.567 418.944c-8.781-3.098-443.418-156.237-451.968-159.257-7.27-2.56-8.909-8.832-0.256-12.263 10.266-4.121 97.177-38.938 97.177-38.938h-0.025l57.626-23.091c0 0 277.427 203.75 281.19 206.49 3.763 2.765 8.141-2.432 5.401-5.401-2.739-2.995-201.498-217.959-201.498-217.959-0.026 0-0.026 0-0.026 0l-11.571-12.902 15.335-8.243c0 0 119.040-64.077 127.514-68.659 7.424-3.993 17.101-0.666 19.251 8.576 2.534 10.906 72.832 313.907 74.394 320.615 2.048 8.781-3.738 14.131-12.544 11.034zM180.608 47.053c0-6.323 3.559-8.064 8.474-3.61 6.4 5.837 72.935 65.536 72.935 65.536l-81.408 42.137v-104.064z" />
<glyph unicode="&#xe610;" d="M384 81.92h-332.8v230.4h66.432c0 0 17.639 22.938 55.552 51.2h-147.584c-14.131 0-25.6-11.469-25.6-25.6v-281.6c0-14.157 11.469-25.6 25.6-25.6h384c14.157 0 25.6 11.443 25.6 25.6v95.897l-51.2-42.112v-28.185zM342.067 259.84v-90.88l169.933 133.146-169.933 127.974v-80.128c-206.387-0.025-206.387-204.032-206.387-204.032 58.419 95.949 94.362 113.92 206.387 113.92z" />
<glyph unicode="&#xe611;" d="M141.209 122.265c-57.907 62.285-56.883 159.872 3.251 220.442 24.627 24.781 55.398 39.577 87.398 44.442l-1.767 53.171c-44.903-5.453-88.371-25.497-122.803-60.16-80.615-81.203-81.561-212.224-3.149-295.219l-44.569-44.877 141.056-7.705-0.384 149.351-59.034-59.443zM311.347 428.416l0.384-149.351 59.059 59.469c57.907-62.285 56.909-159.872-3.251-220.442-24.627-24.807-55.399-39.577-87.424-44.442l1.767-53.145c44.928 5.453 88.397 25.498 122.829 60.185 80.589 81.178 81.587 212.224 3.123 295.194l44.57 44.877-141.056 7.655z" />
<glyph unicode="&#xe612;" d="M448-16h-384c-26.512 0-48 21.504-48 48v224c0 26.512 21.488 48 48 48h32l135.888 104.288c-0.608 2.48-1.024 5.040-1.024 7.712 0 17.664 14.336 32 32 32s31.984-14.336 31.984-32c0-5.744-1.632-11.072-4.304-15.744l125.456-96.256h32c26.496 0 48-21.488 48-48v-224c0-26.496-21.504-48-48-48zM273.136 86.672h64.496v12.128h-50.88v91.008h-13.632v-103.136zM180.848 86.672l11.296 31.248h43.328l11.872-31.248h15.552l-42.048 103.12h-14.784l-39.648-103.12h14.432zM85.472 177.696c-2.944-4.544-4.416-9.424-4.416-14.624 0-4.752 1.2-9.024 3.616-12.864s6.080-7.024 10.992-9.632c3.776-2.016 10.384-4.16 19.824-6.432s15.536-3.952 18.304-5.024c4.304-1.664 7.392-3.664 9.296-6.080s2.864-5.216 2.864-8.448c0-3.168-0.976-6.128-2.912-8.832s-4.896-4.832-8.88-6.384c-3.968-1.568-8.544-2.336-13.728-2.336-5.84 0-11.088 1.008-15.76 3.072-4.688 2.032-8.128 4.72-10.336 8.048s-3.648 7.584-4.256 12.752l-12.88-1.12c0.192-6.896 2.080-13.056 5.664-18.512 3.584-5.472 8.512-9.568 14.8-12.288 6.304-2.72 14.096-4.080 23.408-4.080 7.328 0 13.936 1.344 19.808 4.048 5.872 2.688 10.368 6.432 13.504 11.296 3.136 4.848 4.704 10 4.704 15.488 0 5.52-1.44 10.384-4.304 14.624-2.864 4.256-7.296 7.744-13.312 10.496-4.144 1.872-11.728 4.064-22.768 6.56-11.056 2.512-17.888 4.976-20.496 7.376-2.672 2.368-4 5.424-4 9.12 0 4.288 1.888 7.92 5.648 10.944s9.744 4.544 17.968 4.544c7.904 0 13.872-1.664 17.904-4.96 4.048-3.312 6.4-8.208 7.104-14.672l13.12 0.992c-0.24 6.048-1.92 11.456-5.040 16.224-3.136 4.768-7.616 8.384-13.44 10.848s-12.544 3.68-20.176 3.68c-6.928 0-13.216-1.168-18.88-3.52-5.696-2.336-10-5.76-12.944-10.304zM282.848 391.2c-5.504-4.432-12.384-7.2-19.984-7.2-10.592 0-19.904 5.2-25.728 13.136l-125.136-93.136h288l-117.152 87.2zM430.976 98.8h-63.248v35.12h56.992v12.128h-56.992v31.632h60.88v12.128h-74.496v-103.12h76.88v12.112zM213.024 179.040c1.664-5.648 4.096-12.8 7.312-21.488l10.864-28.512h-35.184l11.44 30.192c2.352 6.512 4.208 13.12 5.568 19.808z" />
<glyph unicode="&#xe613;" d="M427.469 243.533l-219.161 135.783c-15.975 10.47-29.030 2.739-29.030-17.152v-263.577c0-19.891 13.082-27.597 29.030-17.127l219.187 135.782c0 0 7.783 5.478 7.783 13.159-0.026 7.655-7.808 13.133-7.808 13.133z" />
<glyph unicode="&#xe614;" d="M345.6 409.6c-25.447 0-46.080-7.834-46.080-33.28v-291.84c0-25.447 20.634-33.28 46.080-33.28s46.080 7.834 46.080 33.28v291.84c0 25.446-20.634 33.28-46.080 33.28zM166.4 409.6c-25.446 0-46.080-7.834-46.080-33.28v-291.84c0-25.447 20.634-33.28 46.080-33.28s46.080 7.834 46.080 33.28v291.84c0 25.446-20.633 33.28-46.080 33.28z" />
<glyph unicode="&#xe615;" d="M486.4 56.32c0 0-51.2 249.165-275.84 249.165v98.995l-184.96-165.248 184.96-171.29v111.565c121.933 0 212.275-10.803 275.84-123.187z" />
<glyph unicode="&#xe616;" d="M184.96 335.872v68.608l-184.96-165.248 184.96-171.29v71.142l-108.16 100.147 108.16 96.64zM312.96 305.51v98.97l-184.96-165.248 184.96-171.29v111.565c84.301 0 135.475-10.803 199.040-123.187 0 0-9.395 249.19-199.040 249.19z" />
<glyph unicode="&#xe617;" d="M440.038 380.135c-42.803 39.296-112.205 39.296-155.008 0l-29.030-26.675-29.056 26.675c-42.803 39.296-112.179 39.296-154.982 0-48.154-44.186-48.154-115.815 0-160.026l184.038-168.909 184.039 168.909c48.154 44.211 48.154 115.84 0 160.026z" />
<glyph unicode="&#xe618;" d="M440.038 380.16c-42.803 39.271-112.205 39.271-155.008 0l-29.030-26.675-29.056 26.675c-42.803 39.271-112.179 39.271-154.982 0-48.154-44.211-48.154-115.814 0-160.025l184.038-168.935 184.039 168.935c48.154 44.186 48.154 115.815 0 160.026zM412.8 246.4l-156.8-146.279-156.774 146.279c-15.821 14.489-21.939 33.587-21.939 53.76 0 20.122 3.533 36.659 19.353 51.175 13.952 12.825 32.717 19.865 52.787 19.865 20.096 0 38.861-12.185 52.813-25.011l53.76-46.745 53.76 46.745c13.952 12.826 32.691 25.011 52.787 25.011s38.861-7.040 52.839-19.865c15.795-14.515 19.303-31.053 19.353-51.175 0-20.147-6.144-39.27-21.939-53.76z" />
<glyph unicode="&#xe619;" d="M255.616 424.96v-97.997l179.635 0.026v-193.331h-179.635v-97.817l-194.125 194.56z" />
<glyph unicode="&#xe61a;" d="M256.384 424.96v-97.997l-179.635 0.026v-193.331h179.635v-97.817l194.125 194.56z" />
<glyph unicode="&#xe61b;" d="M255.616 61.44v97.997l179.635-0.026v142.131h-179.635v97.817l-194.125-168.985z" />
<glyph unicode="&#xe61c;" d="M256.384 399.36v-97.997l-179.635 0.026v-142.131h179.635v-97.817l194.125 168.986z" />
<glyph unicode="&#xe61d;" d="M491.52 230.4c0 130.073-105.447 235.52-235.52 235.52s-235.52-105.447-235.52-235.52c0-130.099 105.447-235.546 235.52-235.546s235.52 105.472 235.52 235.546zM71.68 230.4c0 101.786 82.534 184.32 184.32 184.32s184.32-82.534 184.32-184.32c0-101.811-82.534-184.346-184.32-184.346s-184.32 82.534-184.32 184.346zM354.56 184.32v92.16h-104.704v57.6l-97.536-103.68 97.536-103.68v57.6h104.704z" />
<glyph unicode="&#xe61e;" d="M20.48 230.4c0-130.073 105.472-235.52 235.52-235.52 130.073 0 235.52 105.447 235.52 235.52s-105.447 235.52-235.52 235.52c-130.073 0-235.52-105.446-235.52-235.52zM440.32 230.4c0-101.786-82.534-184.32-184.32-184.32s-184.32 82.509-184.32 184.32c0 101.811 82.509 184.32 184.32 184.32s184.32-82.509 184.32-184.32zM157.44 276.48v-92.16h104.704v-57.6l97.536 103.68-97.536 103.68v-57.6h-104.704z" />
<glyph unicode="&#xe61f;" d="M358.375 348.16l0.026-235.52-204.8 117.76z" />
<glyph unicode="&#xe620;" d="M153.625 348.16l-0.025-235.52 204.8 117.76z" />
<glyph unicode="&#xe621;" d="M292.787 370.791c-10.701-10.445-115.251-120.218-115.251-120.218-5.709-5.581-8.55-12.877-8.55-20.173s2.841-14.592 8.55-20.173c0 0 104.551-109.773 115.251-120.192 10.701-10.445 29.952-11.161 41.37 0 11.392 11.136 12.288 26.675-0.026 40.32l-95.923 100.045 95.923 100.045c12.313 13.67 11.418 29.209 0.026 40.345-11.443 11.136-30.695 10.445-41.37 0z" />
<glyph unicode="&#xe622;" d="M219.213 370.791c10.701-10.445 115.251-120.218 115.251-120.218 5.735-5.581 8.576-12.877 8.576-20.173s-2.841-14.592-8.576-20.173c0 0-104.55-109.773-115.251-120.192-10.701-10.445-29.927-11.161-41.369 0-11.417 11.136-12.314 26.675 0 40.32l95.949 100.045-95.923 100.045c-12.314 13.67-11.417 29.209 0 40.345s30.669 10.445 41.344 0z" />
<glyph unicode="&#xe623;" d="M317.414 142.899c6.861-6.938 6.861-18.151 0-25.063-6.861-6.938-17.945-6.938-24.807 0l-98.048 100.019c-6.861 6.938-6.861 18.151 0 25.063l98.048 100.045c6.861 6.938 17.945 6.938 24.807 0s6.861-18.125 0-25.063l-80.384-87.501 80.384-87.501z" />
<glyph unicode="&#xe624;" d="M194.585 142.899c-6.861-6.938-6.861-18.151 0-25.063 6.835-6.938 17.946-6.938 24.806 0l98.048 100.019c6.861 6.938 6.861 18.151 0 25.063l-98.048 100.045c-6.861 6.938-17.946 6.938-24.806 0s-6.861-18.125-0.025-25.037l80.409-87.527-80.384-87.501z" />
<glyph unicode="&#xe625;" d="M368.615 40.499c6.861-6.938 6.861-18.125 0-25.063s-17.945-6.938-24.807 0l-200.448 202.419c-6.861 6.938-6.861 18.151 0 25.063l200.448 202.445c6.861 6.938 17.945 6.938 24.807 0s6.861-18.125 0-25.063l-182.784-189.901 182.784-189.901z" />
<glyph unicode="&#xe626;" d="M143.352 40.499c-6.861-6.938-6.861-18.125 0-25.063s17.946-6.938 24.806 0l200.448 202.419c6.861 6.938 6.861 18.151 0 25.063l-200.448 202.445c-6.861 6.938-17.946 6.938-24.806 0s-6.861-18.125 0-25.063l182.784-189.901-182.784-189.901z" />
<glyph unicode="&#xe627;" d="M465.365 315.62l-0.277 0.154c-2.909 6.018-31.29 66.52-31.29 102.32l-0.031 3.401-3.37 0.354c-0.308 0.031-34.153 4.033-62.857 32.737l-0.692 0.692-0.939 0.277c-4.31 1.231-106.661 30.844-133.21 30.844s-128.931-29.613-133.226-30.844l-0.969-0.262-0.692-0.692c-28.674-28.72-62.519-32.706-62.873-32.737l-3.34-0.37v-3.401c0-35.8-28.412-96.317-31.29-102.32l-0.308-0.154c0.031 0 0.092-0.216 0.123-0.277-0.031-0.016-0.092-0.2-0.123-0.2l0.308-0.154c2.893-6.018 31.29-66.551 31.29-102.351v-3.401l3.34-0.354c0.354 0 34.215-4.063 62.888-32.737l0.677-0.692 0.954-0.247c1.57-0.477 15.899-4.602 34.876-9.743-27.442-61.595-41.371-131.994-40.525-191.065l54.254 53.269 66.166-53.238c-8.327 53.361 2.108 113.356 29.905 170.534 27.781-57.178 38.201-117.173 29.905-170.534l66.135 53.238 54.223-53.269c0.908 61.349-13.975 132.841-43.557 196.021l-2.231-0.154c9.712 2.709 16.299 4.632 17.284 4.925l0.939 0.247 0.692 0.692c28.704 28.673 62.55 32.737 62.857 32.737l3.37 0.354 0.031 3.401c0 35.8 28.381 96.348 31.29 102.351l0.277 0.154c0 0-0.062 0.184-0.092 0.215 0.046 0.077 0.108 0.277 0.108 0.277zM56.778 402.765v7.126l7.096 0.816c0.093 0 4.987 0.601 12.482 3.063l3.002-9.081c-5.895-1.954-10.635-2.909-13.005-3.293-0.093-3.94-0.554-8.388-1.323-13.205l-9.45 1.57c0.785 4.864 1.2 9.281 1.2 13.005zM50.975 370.398l9.204-2.709c-1.77-6.064-4.002-12.683-6.526-19.654l-8.989 3.309c2.462 6.757 4.602 13.19 6.31 19.054zM31.321 311.481l-4.479 2.247 1.416 1.57-1.631 1.585 4.695 2.339c1.169 2.462 3.34 7.219 5.925 13.375l8.803-3.725c-2.432-5.803-4.479-10.343-5.741-13.021l0.939-1.232-0.6-0.477c1.262-2.739 3.155-7.003 5.418-12.266l-8.819-3.71c-2.586 6.157-4.756 10.882-5.925 13.314zM44.665 279.405l8.989 3.279c2.524-6.972 4.756-13.559 6.526-19.685l-9.204-2.678c-1.709 5.91-3.848 12.313-6.31 19.085zM76.355 216.963c-6.88 2.247-11.605 2.94-12.498 3.063l-7.065 0.754v7.188c0 3.756-0.416 8.111-1.2 13.052l9.434 1.539c0.785-4.802 1.231-9.266 1.323-13.19 2.432-0.385 7.034-1.354 13.021-3.309l-3.016-9.096zM323.628 445.906c12.62-3.463 21.856-6.125 23.594-6.618l1.17-0.323 1.832-1.169c3.063-3.063 5.587-5.295 8.111-7.373l-6.018-7.387c-2.678 2.17-5.387 4.51-8.003 7.126-3.601 1.046-12.082 3.463-23.24 6.526l2.555 9.219zM251.583 463.344c9.496-1.739 21.701-4.448 36.277-8.050l-2.278-9.311c-14.437 3.57-26.426 6.249-35.708 8.003l1.708 9.358zM288.337 175.577c-14.514-3.601-26.75-6.372-36.246-8.111l-1.739 9.373c9.312 1.801 21.348 4.448 35.676 8.019l2.308-9.281zM213.798 167.358c-9.343 1.739-21.548 4.448-36.277 8.080l2.278 9.312c14.514-3.632 26.581-6.31 35.708-8.003l-1.708-9.389zM213.305 463.283l1.739-9.404c-9.343-1.739-21.378-4.417-35.708-8.003l-2.278 9.296c14.514 3.601 26.688 6.372 36.246 8.111zM114.556 437.226l0.877 0.862 1.739 0.908c1.954 0.57 11.22 3.248 24.087 6.788l2.555-9.25c-11.898-3.216-20.624-5.741-22.779-6.341-2.955-2.955-5.664-5.295-8.434-7.495l-5.941 7.464c2.678 2.124 5.31 4.479 7.895 7.065zM117.003 191.768l-1.832 1.17c-3.094 3.063-5.587 5.325-8.142 7.373l6.049 7.418c2.678-2.17 5.356-4.541 8.004-7.188 2.231-0.601 11.159-3.186 23.21-6.495l-2.524-9.235c-12.62 3.463-21.825 6.125-23.564 6.618l-1.201 0.339zM350.809 193.523l-0.846-0.846-3.309-1.385c-2.647-0.785-11.19-3.216-22.548-6.341l-2.524 9.265c11.297 3.094 19.777 5.495 22.425 6.249 2.801 2.586 5.741 5.202 8.742 7.603l5.925-7.511c-2.632-2.078-5.248-4.448-7.865-7.034zM420.7 351.374l-8.988-3.309c-2.524 6.941-4.725 13.56-6.495 19.685l9.173 2.647c1.709-5.864 3.848-12.297 6.31-19.023zM389.010 413.769c7.511-2.462 12.421-3.063 12.482-3.063l7.096-0.816v-7.095c0-3.756 0.416-8.173 1.231-13.051l-9.435-1.57c-0.815 4.802-1.231 9.266-1.324 13.19-2.308 0.385-7.096 1.354-13.021 3.309l2.971 9.096zM408.587 227.968v-7.188l-7.096-0.754c-0.846-0.123-5.587-0.815-12.482-3.063l-2.971 9.081c6.048 1.986 10.666 2.909 13.021 3.309 0.092 3.91 0.508 8.357 1.324 13.19l9.435-1.539c-0.815-4.925-1.231-9.281-1.231-13.036zM414.389 260.336l-9.173 2.709c1.77 6.080 3.971 12.683 6.526 19.685l8.957-3.309c-2.462-6.787-4.602-13.19-6.31-19.085zM434.044 311.481c-1.139-2.432-3.34-7.157-5.895-13.313l-8.834 3.724c2.432 5.772 4.541 10.343 5.772 12.959l-0.939 1.262 0.57 0.477c-1.262 2.709-3.186 6.972-5.418 12.298l8.834 3.724c2.555-6.156 4.756-10.912 5.895-13.375l4.479-2.232-1.416-1.539 1.616-1.616-4.663-2.37z" horiz-adv-x="465" />
<glyph unicode="&#xe628;" d="M696.548 230.763l-0.38 0.218c-4.349 9.024-46.862 99.631-46.862 153.216v5.019l-5.019 0.562c-0.49 0.036-51.174 6.053-94.14 49.054l-1.033 0.961-1.377 0.453c-6.505 1.849-159.757 46.155-199.462 46.155s-192.938-44.307-199.407-46.155l-1.413-0.453-0.996-0.961c-43.002-43.002-93.651-49.018-94.141-49.054l-5.038-0.562v-5.019c0-53.585-42.513-144.191-46.825-153.216l-0.453-0.218c0.036-0.036 0.145-0.29 0.217-0.363-0.072-0.072-0.181-0.363-0.217-0.363l0.453-0.253c4.313-8.952 46.825-99.559 46.825-153.179v-5.019l5.020-0.526c0.489-0.072 51.138-6.089 94.141-49.055l0.996-1.033 1.413-0.38c6.47-1.885 159.685-46.192 199.407-46.192s192.956 44.307 199.443 46.192l1.377 0.38 1.033 1.033c42.966 42.966 93.651 48.982 94.14 49.055l5.019 0.526v5.019c0 53.621 42.513 144.227 46.862 153.179l0.38 0.253c0 0-0.109 0.29-0.181 0.363 0.109 0.072 0.217 0.326 0.217 0.363zM84.971 361.254v10.692l10.656 1.196c0.109 0.036 7.43 0.851 18.647 4.566l4.494-13.591c-8.77-2.9-15.874-4.313-19.481-4.929-0.145-5.907-0.779-12.558-2.029-19.806l-14.117 2.374c1.233 7.321 1.831 13.827 1.831 19.499zM76.309 312.725l13.736-4.005c-2.645-9.097-5.907-19.010-9.767-29.447l-13.446 4.947c3.715 10.093 6.886 19.734 9.477 28.505zM46.862 224.638l-6.651 3.334 2.084 2.265-2.483 2.446 7.049 3.498c1.776 3.679 4.983 10.764 8.88 20.006l13.21-5.6c-3.678-8.644-6.76-15.44-8.644-19.39l1.377-1.885-0.852-0.743c1.885-4.077 4.748-10.438 8.1-18.339l-13.21-5.599c-3.878 9.242-7.085 16.327-8.861 20.006zM66.886 176.525l13.374 4.947c3.86-10.401 7.158-20.351 9.803-29.483l-13.772-4.005c-2.537 8.825-5.708 18.466-9.405 28.541zM114.291 83.091c-10.293 3.425-17.415 4.421-18.719 4.603l-10.583 1.123v10.728c0 5.654-0.598 12.214-1.849 19.535l14.117 2.337c1.233-7.212 1.885-13.917 2.011-19.825 3.642-0.562 10.511-1.939 19.499-4.911l-4.476-13.591zM171.482 412.791l1.268 1.269 2.627 1.413c2.899 0.888 16.78 4.856 36.061 10.13l3.751-13.844c-17.704-4.856-30.825-8.608-34.050-9.514-4.458-4.404-8.463-7.937-12.558-11.199l-8.916 11.162c3.951 3.171 7.919 6.723 11.815 10.583zM212.147 35.034c-18.864 5.128-32.673 9.169-35.282 9.913l-1.776 0.49-2.755 1.74c-4.566 4.603-8.354 7.955-12.142 11l8.988 11.144c4.005-3.262 8.028-6.832 11.996-10.764 3.334-0.961 16.708-4.82 34.756-9.731l-3.787-13.791zM319.279 451.788l2.591-14.081c-13.971-2.555-32.002-6.614-53.404-11.96l-3.479 13.899c21.728 5.418 39.994 9.514 54.291 12.142zM319.986 8.867c-14.008 2.591-32.274 6.651-54.291 12.105l3.425 13.954c21.728-5.418 39.704-9.441 53.44-11.96l-2.573-14.099zM376.543 451.933c14.189-2.627 32.491-6.687 54.291-12.142l-3.425-13.881c-21.528 5.382-39.505 9.351-53.44 11.887l2.573 14.135zM377.286 9.011l-2.627 14.081c14.008 2.591 32.002 6.578 53.44 11.96l3.461-13.917c-21.745-5.4-39.976-9.495-54.274-12.123zM484.383 425.766c18.901-5.129 32.745-9.097 35.282-9.913l1.812-0.453 2.718-1.739c4.603-4.603 8.354-7.937 12.178-11.036l-9.024-11.108c-4.041 3.262-8.028 6.832-11.924 10.691-5.454 1.595-18.122 5.237-34.829 9.804l3.788 13.754zM525.066 48.027l-1.269-1.269-4.911-2.048c-3.933-1.16-16.744-4.82-33.724-9.514l-3.788 13.844c16.925 4.675 29.664 8.317 33.597 9.423 4.15 3.86 8.572 7.792 13.029 11.362l8.952-11.181c-4.077-3.226-8.010-6.741-11.888-10.619zM629.68 284.274l-13.41-4.911c-3.823 10.365-7.121 20.314-9.768 29.483l13.736 4.005c2.573-8.897 5.763-18.465 9.441-28.577zM582.293 377.708c11.217-3.715 18.538-4.53 18.611-4.566l10.655-1.196v-10.692c0-5.654 0.634-12.178 1.848-19.499l-14.135-2.374c-1.16 7.248-1.885 13.917-2.011 19.825-3.425 0.525-10.619 1.975-19.462 4.911l4.494 13.591zM611.558 99.546v-10.728l-10.655-1.123c-1.196-0.181-8.317-1.196-18.611-4.603l-4.494 13.591c9.097 3.008 16.001 4.385 19.462 4.911 0.145 5.908 0.851 12.558 2.011 19.825l14.116-2.337c-1.196-7.321-1.831-13.863-1.831-19.535zM620.239 148.075l-13.736 4.041c2.645 9.060 5.944 18.973 9.768 29.411l13.41-4.911c-3.678-10.166-6.832-19.77-9.441-28.541zM649.686 224.638c-1.74-3.679-4.947-10.764-8.843-20.006l-13.211 5.599c3.643 8.644 6.76 15.44 8.607 19.463l-1.377 1.849 0.851 0.707c-1.885 4.077-4.748 10.438-8.064 18.339l13.211 5.6c3.896-9.242 7.121-16.309 8.843-20.006l6.65-3.298-2.048-2.265 2.41-2.483-7.031-3.498z" horiz-adv-x="697" />
<glyph unicode="&#xe629;" d="M405.805 486.4h-405.805v-405.835h134.585l68.347-106.15 68.317 106.15h134.554v405.835zM256.63 466.497h11.918v-7.94h-11.918v7.94zM256.63 108.438h11.918v-7.94h-11.918v7.94zM232.764 466.497h11.948v-7.94h-11.948v7.94zM232.764 108.438h11.948v-7.94h-11.948v7.94zM208.899 466.497h11.948v-7.94h-11.948v7.94zM208.899 108.438h11.948v-7.94h-11.948v7.94zM185.003 466.497h11.948v-7.94h-11.948v7.94zM185.003 108.438h11.948v-7.94h-11.948v7.94zM161.123 466.497h11.948v-7.94h-11.948v7.94zM161.123 108.438h11.948v-7.94h-11.948v7.94zM137.257 466.497h11.948v-7.94h-11.948v7.94zM137.257 108.438h11.948v-7.94h-11.948v7.94zM19.903 444.62h7.971v-11.948h-7.971v11.948zM19.903 420.755h7.971v-11.918h-7.971v11.918zM19.903 396.889h7.971v-11.918h-7.971v11.918zM19.903 373.009h7.971v-11.948h-7.971v11.948zM19.903 349.143h7.971v-11.918h-7.971v11.918zM19.903 325.278h7.971v-11.918h-7.971v11.918zM19.903 301.397h7.971v-11.948h-7.971v11.948zM19.903 277.501h7.971v-11.917h-7.971v11.917zM19.903 253.636h7.971v-11.887h-7.971v11.887zM19.903 229.801h7.971v-11.948h-7.971v11.948zM19.903 205.889h7.971v-11.918h-7.971v11.918zM19.903 182.024h7.971v-11.887h-7.971v11.887zM19.903 158.159h7.971v-11.918h-7.971v11.918zM19.903 134.293h7.971v-11.918h-7.971v11.918zM29.862 100.483h-9.959v9.929h7.971v-1.989h1.989v-7.94zM29.862 458.557h-1.989v-1.989h-7.971v9.929h9.959v-7.94zM53.727 100.483h-11.948v7.94h11.948v-7.94zM53.727 458.557h-11.948v7.94h11.948v-7.94zM77.593 100.483h-11.948v7.94h11.948v-7.94zM77.593 458.557h-11.948v7.94h11.948v-7.94zM101.474 100.483h-11.963v7.94h11.948v-7.94zM101.474 458.557h-11.963v7.94h11.948v-7.94zM125.34 100.483h-11.948v7.94h11.948v-7.94zM125.34 458.557h-11.948v7.94h11.948v-7.94zM292.459 100.483h-11.948v7.94h11.948v-7.94zM292.459 458.557h-11.948v7.94h11.948v-7.94zM316.324 100.483h-11.948v7.94h11.948v-7.94zM316.324 458.557h-11.948v7.94h11.948v-7.94zM340.19 100.483h-11.948v7.94h11.948v-7.94zM340.19 458.557h-11.948v7.94h11.948v-7.94zM364.055 100.483h-11.948v7.94h11.948v-7.94zM364.055 458.557h-11.948v7.94h11.948v-7.94zM385.947 100.483h-9.959v7.94h1.989v1.989h7.971v-9.929zM385.947 122.36h-7.971v11.918h7.971v-11.918zM385.947 146.24h-7.971v11.918h7.971v-11.918zM385.947 170.136h-7.971v11.887h7.971v-11.887zM385.947 193.971h-7.971v11.918h7.971v-11.918zM385.947 217.852h-7.971v11.948h7.971v-11.948zM385.947 241.749h-7.971v11.887h7.971v-11.887zM385.947 265.584h-7.971v11.917h7.971v-11.917zM385.947 289.449h-7.971v11.948h7.971v-11.948zM385.947 313.36h-7.971v11.918h7.971v-11.918zM385.947 337.226h-7.971v11.918h7.971v-11.918zM385.947 361.060h-7.971v11.948h7.971v-11.948zM385.947 384.957h-7.971v11.933h7.971v-11.933zM385.947 408.837h-7.971v11.918h7.971v-11.918zM385.947 432.673h-7.971v11.948h7.971v-11.948zM385.947 456.568h-7.971v1.989h-1.989v7.94h9.959v-9.929z" horiz-adv-x="406" />
<glyph unicode="&#xe62a;" d="M379.205 419.791v25.989l-4.767-0.582c-1.195-0.157-119.438-13.891-174.531 41.203l-3.65-3.288c-55.094-55.062-173.368-41.328-174.5-41.171l-4.767 0.55v-25.958h-16.991v-372.252h16.991v-25.958l4.767 0.55c1.133 0.158 119.406 13.923 174.5-41.171l3.65-3.288c55.094 55.094 173.336 41.36 174.531 41.171l4.767-0.582v25.958h16.959v378.828h-16.959zM33.714 422.669l10.541-1.227-0.834-8.416 0.394-1.935h-10.1v11.579zM27.216 70.019h-8.479v12.696h8.48v-12.696zM27.216 95.427h-8.479v12.727h8.48v-12.727zM27.216 120.881h-8.479v12.727h8.48v-12.727zM27.216 146.32h-8.479v12.727h8.48v-12.727zM27.216 171.727h-8.479v12.759h8.48v-12.759zM27.216 197.166h-8.479v12.727h8.48v-12.727zM27.216 222.605h-8.479v12.727h8.48v-12.727zM27.216 248.059h-8.479v12.727h8.48v-12.727zM27.216 273.466h-8.479v12.727h8.48v-12.727zM27.216 298.906h-8.479v12.727h8.48v-12.727zM27.216 324.313h-8.479v12.727h8.48v-12.727zM27.216 349.783h-8.479v12.727h8.48v-12.727zM27.216 375.206h-8.479v12.224l8.48-0.031v-12.192zM28.695 398.269l9.282 0.094h4.216v-7.646h-13.498v7.552zM31.527 70.082h10.666v-10.509h-10.572l-0.095 2.029v8.479zM42.712 39.169l-8.998-1.070v8.763l3.744 0.252 4.216 0.488c0.094 0 1.715 0.22 4.609 0.456l0.739-8.479c-2.596-0.189-4.090-0.377-4.31-0.409zM56.289 412.097l0.394 8.448c3.65-0.189 7.866-0.283 12.57-0.362l-0.031-8.448c-4.846 0.031-9.188 0.189-12.932 0.362zM72.053 40.585c-4.578 0.031-8.825-0.094-12.538-0.283l-0.331 8.511c3.838 0.158 8.385 0.22 12.9 0.252l-0.031-8.479zM81.854 420.341c3.965 0.126 8.212 0.33 12.507 0.613l0.614-8.416c-4.484-0.315-8.794-0.55-12.9-0.645l-0.22 8.448zM97.161 39.609c-4.326 0.33-8.511 0.55-12.538 0.708l0.331 8.511c4.122-0.189 8.448-0.425 12.869-0.771l-0.66-8.448zM106.837 422.151c4.059 0.425 8.228 1.007 12.412 1.715l1.353-8.385c-4.295-0.677-8.605-1.322-12.775-1.778l-0.991 8.448zM121.987 36.431c-4.184 0.74-8.26 1.353-12.35 1.904l1.038 8.416c4.216-0.55 8.48-1.195 12.806-1.966l-1.495-8.353zM131.505 426.24c3.996 0.897 8.024 1.935 12.051 3.099l2.36-8.149c-4.137-1.195-8.353-2.297-12.585-3.225l-1.825 8.275zM146.167 30.626c-3.933 1.259-7.96 2.329-11.957 3.288l1.966 8.228c4.184-0.976 8.353-2.124 12.57-3.445l-2.58-8.070zM166.634 438.134l3.681-7.583c-3.807-1.872-7.898-3.618-12.019-5.191l-3.005 7.913c3.901 1.479 7.708 3.131 11.343 4.861zM169.057 21.407c-3.508 1.777-7.221 3.539-11.185 5.097l3.131 7.834c4.216-1.652 8.228-3.477 11.957-5.412l-3.901-7.52zM187.243 451.16l5.349-6.544c-3.288-2.738-6.906-5.317-10.73-7.74l-4.547 7.221c3.54 2.202 6.859 4.578 9.927 7.063zM189.304 7.862c-2.958 2.58-6.23 5.065-9.675 7.378l4.736 7.063c3.713-2.548 7.284-5.223 10.509-8.024l-5.569-6.418zM193.52 456.572l5.994 5.68 3.194-2.517c2.674-2.706 5.617-5.286 8.794-7.709l-5.129-6.733c-3.477 2.643-6.733 5.506-9.644 8.416l-3.209 2.863zM204.328 2.639l-5.837 6.183c3.131 2.974 6.607 5.805 10.226 8.416l4.94-6.89c-3.304-2.392-6.466-5.003-9.329-7.709zM221.633 445.292c3.414-2.030 7.095-3.933 10.934-5.617l-3.54-7.74c-4.090 1.841-8.024 3.87-11.704 6.026l4.31 7.331zM224.024 16.861l-4.122 7.442c3.713 2.061 7.677 3.996 11.799 5.742l3.351-7.772c-3.87-1.683-7.583-3.509-11.028-5.412zM244.036 434.988c3.87-1.353 7.834-2.58 11.831-3.65l-2.25-8.196c-4.184 1.132-8.353 2.422-12.444 3.87l2.863 7.976zM246.616 26.662l-2.706 8.055c4.122 1.385 8.291 2.58 12.507 3.65l2.124-8.197c-4.028-1.038-7.992-2.218-11.925-3.509zM267.964 428.411c4.122-0.865 8.228-1.573 12.286-2.187l-1.259-8.385c-4.216 0.645-8.511 1.385-12.759 2.297l1.731 8.275zM270.702 32.907l-1.636 8.322c4.264 0.834 8.543 1.541 12.759 2.124l1.195-8.385c-4.091-0.582-8.197-1.259-12.318-2.061zM292.68 424.636c4.264-0.425 8.479-0.771 12.507-0.975l-0.488-8.448c-4.154 0.22-8.448 0.551-12.869 1.007l0.849 8.417zM295.464 36.4l-0.803 8.416c4.421 0.425 8.731 0.74 12.901 0.959l0.394-8.511c-4.043-0.158-8.212-0.456-12.491-0.865zM317.74 423.157c2.423-0.063 4.829-0.063 7.127-0.094 1.872 0 3.682 0.063 5.412 0.094l0.189-8.479c-1.809-0.031-3.682-0.063-5.585-0.063-2.281-0.032-4.767 0.031-7.284 0.063l0.142 8.479zM333.111 37.548c-2.832 0.063-5.837 0.126-9.093 0.126l-3.477-0.031-0.126 8.511h3.666c3.257 0 6.387-0.031 9.219-0.094l-0.189-8.511zM342.849 423.661c6.513 0.362 10.478 0.834 10.666 0.834l1.747 0.251 0.976-8.416-1.747-0.22c-0.189-0.031-4.295-0.519-11.185-0.897l-0.456 8.448zM362.451 35.55l-8.936 0.708c-0.676 0.094-3.445 0.362-7.897 0.708l0.613 8.479c4.61-0.362 16.22-0.803 16.22-0.803v-9.093zM362.451 53.029h-8.479v14.159l8.479 0.315v-14.474zM362.451 397.844h-8.479v12.696h8.479v-12.696zM377.443 63.475h-8.511v12.727h8.511v-12.727zM377.443 88.882h-8.511v12.759h8.511v-12.759zM377.443 114.368h-8.511v12.712h8.511v-12.712zM377.443 139.775h-8.511v12.727h8.511v-12.727zM377.443 165.214h-8.511v12.727h8.511v-12.727zM377.443 190.621h-8.511v12.759h8.511v-12.759zM377.443 216.091h-8.511v12.696h8.511v-12.696zM377.443 241.546h-8.511v12.696h8.511v-12.696zM377.443 266.954h-8.511v12.727h8.511v-12.727zM377.443 292.392h-8.511v12.696h8.511v-12.696zM377.443 317.831h-8.511v12.727h8.511v-12.727zM377.443 343.238h-8.511v12.727h8.511v-12.727zM377.443 368.692h-8.511v12.712h8.511v-12.712zM377.443 393.659l-13.247-0.047v8.479h13.247v-8.433z" horiz-adv-x="396" />
<glyph unicode="&#xe62b;" d="M491.772 276.373l-33.518 33.537v44.050c0 41.484-33.596 75.061-75.061 75.061h-44.030l-35.442 35.422c-29.301 29.302-76.849 29.302-106.15 0l-27.611-27.591-7.928-7.83h-44.808c-41.446 0-75.061-33.596-75.061-75.061v-39.056l-0.020-4.138-20.169-20.189c-29.321-29.301-29.321-76.849 0-106.15l19.14-19.159-0.175-25.882v-32.527c0-41.485 33.595-75.061 75.061-75.061h58.603l35.403-35.403c29.302-29.302 76.849-29.302 106.17 0l23.026 23.045 12.572 12.377h30.176c41.446 0 75.061 33.596 75.061 75.061v28.661l2.875 2.837 31.866 31.886c29.321 29.262 29.321 76.829 0.019 106.112zM156.806 405.452l7.248-13.543c-6.412-3.42-12.708-7.365-18.77-11.581l-8.841 12.533c6.529 4.586 13.388 8.88 20.363 12.591zM86.35 341.874l12.707-8.608c-4.138-6.063-7.927-12.435-11.308-18.964l-13.641 7.053c3.653 7.053 7.772 14.010 12.242 20.519zM64.452 299.418l14.398-5.304c-2.546-6.898-4.722-14.048-6.431-21.18l-14.904 3.556c1.827 7.753 4.178 15.447 6.937 22.928zM53.395 252.92l15.273-1.71c-0.777-6.879-1.186-13.854-1.186-20.752l-10.395-0.952-4.955 0.796c0 7.597 0.408 15.195 1.263 22.618zM58.175 181.648c-1.943 7.675-3.439 15.603-4.45 23.453l15.253 1.982c0.913-7.286 2.293-14.612 4.1-21.704l-14.904-3.731zM65.424 158.817l14.301 5.577c2.681-6.878 5.751-13.621 9.191-20.072l-13.524-7.267c-3.731 7.034-7.092 14.32-9.968 21.762zM102.769 97.979c-5.305 5.887-10.317 12.222-14.864 18.712l12.572 8.764c4.197-5.965 8.802-11.795 13.737-17.313l-11.445-10.163zM112.543 350.774l-11.581 10.104c5.285 6.024 10.9 11.756 16.788 17.060l10.279-11.425c-5.421-4.897-10.629-10.162-15.487-15.739zM138.677 66.404c-6.548 4.469-12.921 9.443-18.886 14.69l10.123 11.58c5.538-4.858 11.406-9.443 17.449-13.582l-8.685-12.688zM181.075 44.35c-7.423 2.779-14.787 6.063-21.859 9.754l7.073 13.621c6.529-3.42 13.329-6.451 20.189-8.997l-5.401-14.378zM184.087 401.158l-5.577 14.32c7.462 2.915 15.097 5.383 22.773 7.365l3.809-14.923c-7.053-1.787-14.126-4.061-21.005-6.762zM227.534 33.159c-7.928 0.913-15.836 2.313-23.55 4.178l3.595 14.923c7.092-1.671 14.417-2.993 21.743-3.866l-1.787-15.233zM226.776 412.135l-1.982 15.215c7.811 0.991 15.836 1.593 23.841 1.671l0.175-15.331c-7.383-0.117-14.806-0.641-22.035-1.555zM442.982 280.55c2.002-7.695 3.556-15.603 4.586-23.492l-15.195-2.040c-1.010 7.286-2.409 14.573-4.255 21.626l14.865 3.906zM435.56 303.284l-14.281-5.615c-2.682 6.84-5.829 13.505-9.327 19.994l13.524 7.286c3.769-6.976 7.19-14.301 10.084-21.666zM251.415 31.798l-0.019 15.37c7.306 0.039 14.729 0.486 22.035 1.36l1.904-15.214c-7.947-0.991-15.991-1.515-23.919-1.515zM270.884 412.582l1.651 15.253c7.87-0.836 15.797-2.196 23.589-4.022l-3.478-14.962c-7.17 1.691-14.515 2.934-21.762 3.731zM298.845 37.666l-3.692 14.884c7.111 1.788 14.185 4.022 21.063 6.606l5.46-14.301c-7.423-2.895-15.117-5.285-22.831-7.19zM313.807 402.537l5.265 14.417c7.423-2.739 14.825-5.965 21.957-9.56l-6.976-13.698c-6.567 3.322-13.388 6.334-20.247 8.841zM343.497 54.746l-7.19 13.543c6.451 3.42 12.805 7.248 18.867 11.503l8.744-12.669c-6.548-4.527-13.446-8.685-20.421-12.377zM353.076 382.485l8.589 12.669c6.548-4.411 12.921-9.308 18.984-14.495l-10.026-11.659c-5.596 4.877-11.503 9.385-17.546 13.485zM382.688 81.968l-10.163 11.503c5.479 4.897 10.726 10.123 15.584 15.642l11.522-10.163c-5.285-5.985-10.978-11.678-16.943-16.983zM386.419 353.611l11.367 10.317c5.382-5.927 10.435-12.183 15-18.634l-12.514-8.88c-4.216 5.965-8.88 11.775-13.854 17.196zM414.341 117.74l-12.63 8.764c4.178 6.043 8.025 12.377 11.445 18.906l13.582-7.131c-3.712-7.053-7.87-13.971-12.397-20.538zM436.57 160.099l-14.378 5.382c2.623 6.898 4.819 14.048 6.567 21.14l14.904-3.653c-1.904-7.695-4.294-15.389-7.092-22.87zM447.937 206.558l-15.233 1.827c0.875 7.286 1.302 14.69 1.302 22.093l-0.019 2.546 15.37 0.233v-2.876c0-7.928-0.466-15.933-1.418-23.822z" horiz-adv-x="514" />
<glyph unicode="&#xe62c;" d="M488.305 343.922c0 37.885-30.723 68.551-68.551 68.551 0 0-131.783 47.41-176.773 73.928-44.145-26.518-174.45-73.928-174.45-73.928-37.847 0-68.531-30.665-68.531-68.551l22.812-116.114-22.812-117.977c0-37.885 30.684-68.589 68.531-68.589 0 0 130.304-46.949 174.45-66.822 44.971 19.874 176.773 66.822 176.773 66.822 37.847 0 68.551 30.723 68.551 68.589l-22.87 125.6 22.87 108.491zM430.507 276.6l-14.805 3.111 6.221 29.667 14.843-3.149-6.26-29.628zM435 160.313l-14.92-2.707-5.396 29.897 14.901 2.746 5.415-29.936zM96.336 376.22l3.302-14.824c-8.487-1.862-16.245-6.183-22.37-12.443l-10.849 10.619c8.199 8.353 18.549 14.094 29.916 16.648zM79.918 239.809l-14.9-2.957-5.856 29.821 14.9 2.918 5.856-29.782zM50.424 329.251l14.92-2.957c-0.576-2.803-0.864-5.78-0.864-8.775l3.706-18.146-14.901-2.938-3.84 19.548c-0.154 5.434 0.23 9.409 0.98 13.268zM53.209 116.571c-2.593 6.817-3.917 13.998-3.917 21.334l2.285 12.481 14.9-2.842-2.15-11.099c0.153-4.051 1.133-9.37 3.073-14.517l-14.19-5.358zM57.356 180.187l5.742 29.859 14.881-2.918-5.76-29.782-14.862 2.842zM106.186 77.84c-11.675 0.634-22.812 4.57-32.24 11.521l8.968 12.27c7.028-5.204 15.38-8.18 24.118-8.622l-0.845-15.17zM124.467 383.708c7.777 2.918 17.57 6.721 28.265 10.869l5.569-14.094c-10.791-4.186-20.661-7.988-28.495-10.906l-5.338 14.132zM161.257 58.255l-28.495 10.503 5.242 14.248 28.515-10.581-5.262-14.171zM180.805 405.925c9.543 3.936 18.99 7.988 27.727 11.924l6.24-13.844c-8.91-4.013-18.53-8.103-28.15-12.116l-5.818 14.036zM217.865 36.499c-8.679 3.457-18.319 7.2-28.285 10.983l5.453 14.171c10.004-3.86 19.739-7.604 28.438-11.060l-5.607-14.094zM242.636 417.618l-0.595 1.056c-0.922 0.518-1.805 1.056-2.65 1.575l0.941 1.536-5.089 9.121 7.969 4.685 3.898-2.285c5.319-3.149 12.731-6.932 21.986-11.214l-6.394-13.768c-7.661 3.572-14.171 6.798-19.394 9.716-0.231-0.154-0.461-0.307-0.672-0.423zM251.622 29.375l-5.895 13.998c7.738 3.264 17.608 7.239 28.438 11.406l5.473-14.132c-10.695-4.147-20.392-8.007-28.016-11.272zM296.67 409.995c9.274-3.86 18.818-7.719 28.015-11.367l-5.569-14.133c-9.293 3.668-18.933 7.585-28.323 11.521l5.876 13.979zM307.979 51.399l-5.319 14.171c9.716 3.629 19.509 7.277 28.572 10.618l5.204-14.286c-9.025-3.264-18.741-6.875-28.457-10.503zM352.95 387.76c13.614-5.185 23.868-8.929 27.267-10.158l0.288-0.115c0.576-0.192 0.884-0.307 0.884-0.307l-1.017-2.784-0.115-4.397-1.421-7.585-2.554 0.442c0 0-11.771 4.243-28.688 10.657l5.358 14.248zM380.198 77.802l-15.227-5.511-5.127 14.286 18.971 6.337c3.725 0 7.412 0.442 10.983 1.382l3.706-14.747c-4.32-1.075-8.794-1.671-13.307-1.748zM412.995 366.983c9.639-6.683 17.070-15.899 21.487-26.671l-14.017-5.741c-3.322 8.026-8.852 14.958-16.091 19.951l8.622 12.462zM406.12 234.337l3.322 15.631 14.805-3.072-2.669-12.75 2.573-14.094-14.92-2.746-3.111 17.032zM422.942 97.042l-11.118 10.312c5.933 6.452 9.87 14.363 11.329 22.947l14.959-2.554c-1.978-11.464-7.2-22.082-15.17-30.704z" horiz-adv-x="488" />
<glyph unicode="&#xe62d;" d="M313.327 484.944c0 0-7.116 1.456-15.57 1.456-8.409 0-15.555-1.159-15.555-1.159-71.702-11.322-127.417-54.006-153.046-112.471-9.657 1.1-21.38-4.502-22.242-14.337-60.484-9.167-106.913-61.257-106.913-124.297v-35.138c40.531-16.447 150.327-51.273 251.714 0.029v35.108c0 16.566-3.268 32.389-9.107 46.86h49.46v-75.044c-14.248-0.060-27.68 0.981-40.308 2.734v-11.485c12.599-1.679 25.926-2.704 40.011-2.704 0.104 0 0.238 0 0.312 0v-67.527c-15.348 12.539-28.749 24.871-40.308 37.203v-17.145c7.488-7.548 15.586-15.125 24.44-22.806-8.409 1.589-16.566 3.625-24.44 6.121v-11.663c8.572-2.496 17.353-4.695 26.505-6.27 0 0 4.026-0.981 15.927-2.228 10.014-0.728 15.719 0.877 15.719 0.877 94.671 12.45 163.238 80.498 171.113 169.954h0.431v8.974c0.104 2.838 0.372 5.571 0.372 8.41-0.015 95.577-69.949 171.602-168.512 186.549zM270.776 471.543c-17.458-16.343-41.675-41.586-60.351-74.867-31.81-8.796-55.923-21.038-70.721-29.774-0.104 0.119-0.193 0.327-0.312 0.431 22.405 51.778 69.829 90.571 131.384 104.21zM203.219 382.799c-5.883-12.332-10.742-25.703-14.352-39.981-12.733 7.428-26.892 12.599-41.957 15.155 12.451 7.339 31.557 17.026 56.309 24.826zM147.637 239.129c0-12.019-9.762-21.766-21.781-21.766s-21.751 9.747-21.751 21.766v59.608c0 12.049 9.731 21.796 21.751 21.796s21.781-9.747 21.781-21.796v-59.608zM292.067 292.408h-54.779c-9.123 17.353-22.197 32.3-38.020 43.666 4.68 18.691 11.886 35.955 20.607 51.392 20.994 5.274 45.226 8.885 72.177 8.825v-103.883zM292.067 407.582c-23.385 0.029-44.855-2.585-64.005-6.671 23.697 36.386 52.803 61.049 64.005 69.756v-63.084zM458.291 363.589c-28.793 15.199-56.339 25.792-82.459 32.761-6.404 11.351-13.357 21.914-20.533 31.393-13.431 18.423-27.56 33.8-39.402 45.419 68.106-11.485 120.003-52.55 142.393-109.573zM303.476 292.408v103.689c20.058-0.788 41.526-3.714 64.154-9.375 10.415-19.553 18.75-41.259 22.642-64.704 0.089-0.699 0.163-1.427 0.283-2.125 0.609-3.952 1.099-7.919 1.471-11.96 0.387-5.111 0.654-10.236 0.624-15.526h-89.174zM392.161 281.012c-0.981-13.49-3.536-26.847-7.771-39.952-0.341-0.981-0.609-2.036-0.981-3.046-0.341-1.011-0.743-1.976-1.099-2.957-2.228-6.003-5.051-11.96-8.098-17.814-25.079-6.849-48.762-10.222-70.721-11.084v74.867h88.669zM300.654 407.582v63.084c11.173-8.707 40.308-33.37 63.99-69.755-19.166 4.086-40.591 6.7-63.99 6.671zM303.476 133.359v61.495c19.745 0.728 40.754 3.447 62.921 8.676-14.382-22.954-34.945-45.85-62.921-70.171zM314.412 123.345c30.859 27.426 53.442 55.447 68.269 84.45 24.708 7.116 50.753 17.591 77.853 32.122-21.291-60.93-75.55-105.28-146.123-116.571zM465.080 255.204c-26.401-15.036-51.763-25.881-75.936-33.608 3.566 8.469 6.641 17.012 8.944 25.659 0.327 1.278 0.579 2.526 0.921 3.833 0.476 2.095 1.010 4.175 1.456 6.27 0.624 3.135 1.159 6.299 1.635 9.494 0.075 0.46 0.193 1.011 0.283 1.516 0.505 3.744 0.861 7.488 1.173 11.322 0 0.119 0.015 0.297 0.015 0.46 0.045 0.297 0.045 0.609 0.075 0.877h65.952c-0.847-8.84-2.452-17.458-4.517-25.822zM470.176 292.408h-66.16c0 0.089 0 0.119 0 0.178 0.149 33.889-8.528 63.961-20.978 89.902 25.57-7.637 52.506-18.883 80.631-34.767 4.398-15.526 6.79-32.032 6.79-49.327 0-2.005-0.223-3.982-0.283-5.987zM0 182.923v-82.637c0-69.532 56.339-125.887 125.857-125.887s125.871 56.354 125.871 125.887v80.81c-32.151-16.135-120.003-47.262-251.728 1.827z" horiz-adv-x="482" />
<glyph unicode="&#xe62e;" d="M0 196.124v-87.914c0-73.942 59.898-133.81 133.81-133.81 73.885 0 133.81 59.869 133.81 133.81v85.96c-34.176-17.209-127.579-50.259-267.62 1.954zM150.991 383.087c-0.085 22.471 30.155 23.981 30.155 23.981 91.207 0 79.317 79.331 79.317 79.331h-27.090c0-65.529-58.458-58.486-58.458-58.486-49.29 0-59.712-27.318-61.237-45.283-64.303-9.738-113.678-65.073-113.678-132.099v-37.342c43.102-17.523 159.817-54.522 267.62 0.057v37.285c0 68.038-50.858 124.086-116.63 132.555zM156.922 255.851c0-12.775-10.337-23.141-23.112-23.141s-23.169 10.365-23.169 23.141v63.347c0 12.775 10.394 23.169 23.169 23.169s23.112-10.394 23.112-23.169v-63.347z" horiz-adv-x="268" />
<glyph unicode="&#xe62f;" d="M202.273 121.459c-3.106 5.306-12.841 22.185-27.897 50.973h-146.627v284.086h239.783v-256.608c2.714 0.661 5.509 1.053 8.521 1.053 5.779 0 11.545-1.269 17.216-3.822 0.608 0.5 1.351 0.972 1.971 1.445v262.967c0 13.692-12.26 24.845-27.37 24.845h-240.499c-15.136 0-27.37-11.154-27.37-24.845v-316.020c0-13.692 12.233-24.818 27.37-24.818h175.199c-0.081 0.243-0.216 0.526-0.297 0.743zM147.64 129.993c-8.993 0-16.271 6.616-16.271 14.745 0 8.156 7.278 14.772 16.271 14.772 8.966 0 16.271-6.616 16.271-14.772 0-8.115-7.305-14.745-16.271-14.745zM437.208 29.491l-4.213 22.334c0.445 57.333-40.644 117.812-40.644 117.812-14.502 36.053-53.795 19.916-53.795 19.916-26.789 25.683-46.436-4.848-46.436-4.848-30.044 24.022-46.95-11.869-46.95-11.869-3.511-0.688-50.743 79.464-64.138 97.896h13.26v16.487h-36.687v9.992h36.687v17.324h-29.22l36.107 66.744h-23.023l-24.899-48.502c-2.43-4.753-4.24-8.655-5.725-11.734-1.377 3.214-3.132 6.779-5.306 10.843l-26.371 49.393h-21.753l36.214-66.744h-29.153v-17.324h36.849v-9.992h-36.849v-16.487h36.849v-30.409h19.593v0.661c34.621-70.201 55.456-105.093 55.456-105.093 0.446-5.482 42.386-67.757 28.032-75.846-10.924 0.661-31.57 17.931-31.57 17.931-0.189-0.5-25.737 19.62-26.182 19.39-38.605 20.538-33.203-24.629-13.314-33.312 0.945-5.279 5.644-1.796 26.006-30.8 3.038-7.548 32.285-17.324 32.285-17.324 42.669-25.48 82.151-24.399 82.151-24.399 21.699-5.144 16.959-17.122 16.959-17.122l109.778 55.078z" horiz-adv-x="437" />
<glyph unicode="&#xe630;" d="M100.292 92.648h-17.337v23.349h24.615c5.105 5.614 12.356 8.916 20.776 8.916 7.155 0 14.887-2.229 23.487-6.825 0.963-0.454 2.147-1.156 3.495-2.091h3.468v-2.531c2.587-1.995 5.806-4.541 10.347-8.173 1.431-1.183 2.848-2.312 4.224-3.385l0.536 0.289 7.719-6.591c-4.224 8.848-8.847 17.626-11.503 22.606-4.513 8.572-6.99 13.25-8.201 16.882-0.674 1.211-1.692 3.068-2.93 5.435h-135.722v293.363h195.19v-224.883c5.504 3.096 12.012 5.243 19.649 5.243 1.238 0 2.422-0.289 3.632-0.426v241.45c-0.014 17.172-13.924 31.124-31.069 31.124h-179.601c-17.199 0-31.069-13.952-31.069-31.124v-364.678c0-17.144 13.87-31.096 31.069-31.096h96.536c-10.058 8.31-26.638 21.245-27.313 33.147zM190.182 466.916c4.403 0 7.953-3.55 7.953-7.953 0-4.348-3.55-7.953-7.953-7.953s-7.953 3.605-7.953 7.953c0 4.403 3.55 7.953 7.953 7.953zM79.227 463.904h83.285v-9.081h-83.285v9.081zM401.443 28.364l-3.757 23.088c1.885 59.069-38.856 122.404-38.856 122.404-14.034 37.55-54.9 21.96-54.9 21.96-26.982 27.092-47.993-3.839-47.993-3.839-30.312 25.51-48.667-11.077-48.667-11.077-2.71-0.426-29.637 46.658-48.53 78.332h9.701v16.827h-19.882c-3.069 4.844-5.448 8.435-6.88 10.155h26.762v17.681h-29.748l36.737 67.957h-23.459l-25.373-49.327c-2.504-4.885-4.32-8.847-5.862-11.984-1.376 3.219-3.165 6.88-5.407 11.049l-26.831 50.276h-22.153l36.875-67.957h-29.692v-17.681h35.981c-0.275-2.71-0.082-6.095 0.812-10.155h-36.793v-16.827h37.549v-30.958h19.538c26.79-56.414 42.654-84.565 42.654-84.565 0.289-5.697 41.925-70.916 26.954-78.841-11.227 0.963-32.114 19.291-32.114 19.291-0.165-0.564-25.992 20.832-26.473 20.611-39.186 22.166-34.825-24.505-14.543-33.972 0.853-5.449 5.751-2.009 26.047-32.431 2.903-7.788 32.788-18.63 32.788-18.63 43.273-27.353 83.987-27.271 83.987-27.271 22.221-5.861 17.007-18.053 17.007-18.053l114.519 53.937z" horiz-adv-x="401" />
<glyph unicode="&#xe631;" d="M202.259 121.459c-3.106 5.306-12.855 22.185-27.897 50.973h-146.627v284.086h239.797v-256.608c2.7 0.661 5.495 1.053 8.493 1.053 5.793 0 11.545-1.269 17.243-3.822 0.594 0.5 1.324 0.972 1.971 1.445v262.967c0 13.692-12.247 24.845-27.356 24.845h-240.499c-15.164 0-27.384-11.154-27.384-24.845v-316.020c0-13.692 12.22-24.818 27.384-24.818h175.185c-0.095 0.243-0.216 0.526-0.31 0.743zM147.626 129.993c-8.98 0-16.271 6.616-16.271 14.745 0 8.156 7.292 14.772 16.271 14.772 8.966 0 16.285-6.616 16.285-14.772 0-8.115-7.319-14.745-16.285-14.745zM437.208 29.491l-4.226 22.334c0.432 57.333-40.644 117.812-40.644 117.812-14.488 36.053-53.795 19.916-53.795 19.916-26.776 25.683-46.45-4.848-46.45-4.848-30.017 24.022-46.936-11.869-46.936-11.869-2.781-0.526-32.569 48.921-51.675 79.046h0.554v18.877h-13.057c-1.782 2.485-2.984 3.875-3.375 3.74-6.549 8.021-30.084 15.826-29.95-3.74h-15.366c6.185 6.036 10.329 13.057 12.409 20.997 1.877 7.224 1.58 14.691 1.053 22.306h29.125v16.878h-31.286c-1.066 5.779-2.066 12.207-2.066 20.754 0 11.207 3.781 24.575 21.685 24.575 7.872 0 17.162-5.144 21.659-7.589l3.686-1.998-0.149 22.090-0.823 0.5c-3.403 2.079-11.059 5.563-24.373 5.563-25.358 0-43.074-17.621-43.074-42.885 0-7.143 0.931-14.34 2.039-21.024h-19.687v-16.878h22.415c0.702-4.793 0.81-8.656 0.81-13.003 0-14.583-9.020-28.086-23.522-35.31l-0.986-0.472v-13.395h51.081c0.013-0.081 0.041-0.135 0.067-0.243 37.74-77.371 60.695-115.746 60.695-115.746 0.446-5.482 42.372-67.757 28.046-75.846-10.924 0.661-31.583 17.932-31.583 17.932-0.162-0.5-25.723 19.62-26.182 19.39-38.55 20.538-33.203-24.629-13.314-33.312 0.958-5.279 5.657-1.796 26.034-30.8 3.024-7.548 32.285-17.324 32.285-17.324 42.642-25.48 82.124-24.399 82.124-24.399 21.699-5.144 16.946-17.121 16.946-17.121l109.805 55.091z" horiz-adv-x="437" />
<glyph unicode="&#xe632;" d="M100.292 92.648h-17.35v23.349h24.643c5.077 5.614 12.356 8.916 20.776 8.916 7.141 0 14.846-2.229 23.474-6.825 0.963-0.454 2.174-1.156 3.508-2.091h3.44v-2.531c2.587-1.995 5.82-4.541 10.347-8.173 1.431-1.183 2.862-2.312 4.224-3.385l0.55 0.289 7.691-6.591c-4.21 8.848-8.847 17.626-11.476 22.606-4.527 8.572-6.976 13.25-8.201 16.882-0.688 1.211-1.679 3.068-2.945 5.435h-135.667v293.363h195.163v-224.883c5.518 3.096 12.025 5.243 19.648 5.243 1.211 0 2.422-0.289 3.632-0.426v241.45c-0.028 17.172-13.911 31.124-31.096 31.124h-179.588c-17.199 0-31.069-13.952-31.069-31.124v-364.678c0-17.144 13.87-31.096 31.069-31.096h96.522c-10.058 8.31-26.611 21.245-27.299 33.147zM190.182 466.916c4.389 0 7.953-3.55 7.953-7.953 0-4.348-3.564-7.953-7.953-7.953s-7.953 3.605-7.953 7.953c0 4.403 3.55 7.953 7.953 7.953zM79.227 463.904h83.271v-9.081h-83.272v9.081zM401.43 28.364l-3.784 23.088c1.926 59.069-38.856 122.404-38.856 122.404-14.007 37.55-54.873 21.96-54.873 21.96-26.954 27.092-48.007-3.839-48.007-3.839-30.312 25.51-48.639-11.077-48.639-11.077-4.018-0.619-60.459 101.696-66.568 106.319h7.966v17.227h-31.922c-1.073 5.834-2.105 12.411-2.105 21.148 0 11.393 3.867 25.042 22.098 25.042 8.022 0 17.488-5.242 22.084-7.76l3.729-2.064-0.151 22.524-0.839 0.536c-3.468 2.147-11.269 5.697-24.835 5.697-25.84 0-43.879-18.011-43.879-43.727 0-7.251 0.95-14.599 2.064-21.396h-20.034v-17.226h22.827c0.716-4.885 0.826-8.792 0.826-13.223 0-14.832-9.192-28.619-23.955-35.981l-1.018-0.523v-13.65h59.138c25.523-53.51 40.563-80.135 40.563-80.135 0.303-5.697 41.925-70.916 26.927-78.841-11.214 0.963-32.087 19.291-32.087 19.291-0.151-0.564-26.005 20.832-26.473 20.611-39.214 22.166-34.839-24.505-14.558-33.972 0.867-5.449 5.765-2.009 26.019-32.431 2.903-7.788 32.816-18.63 32.816-18.63 43.273-27.353 83.96-27.271 83.96-27.271 22.235-5.861 17.034-18.053 17.034-18.053l114.533 53.95zM105.246 243.107c4.898 4.788 8.504 10.209 10.883 16.126 2.559-5.559 5.064-10.911 7.472-16.126h-18.355z" horiz-adv-x="401" />
<glyph unicode="&#xe633;" d="M202.259 121.459c-3.106 5.306-12.828 22.185-27.897 50.973h-146.627v284.086h239.783v-256.608c2.7 0.661 5.509 1.053 8.493 1.053 5.806 0 11.545-1.269 17.243-3.822 0.58 0.5 1.337 0.972 1.971 1.445v262.967c0 13.692-12.233 24.845-27.37 24.845h-240.472c-15.164 0-27.384-11.154-27.384-24.845v-316.020c0-13.692 12.22-24.818 27.384-24.818h175.199c-0.095 0.243-0.23 0.526-0.324 0.743zM147.626 129.993c-8.993 0-16.271 6.616-16.271 14.745 0 8.156 7.278 14.772 16.271 14.772 8.98 0 16.271-6.616 16.271-14.772 0-8.115-7.292-14.745-16.271-14.745zM437.208 29.491l-4.24 22.334c0.445 57.333-40.63 117.812-40.63 117.812-14.488 36.053-53.781 19.916-53.781 19.916-26.789 25.683-46.463-4.848-46.463-4.848-30.017 24.022-46.923-11.869-46.923-11.869-2.565-0.5-28.234 41.778-47.233 71.943 8.723 8.196 13.84 18.594 15.272 30.935l0.23 2.295h-19.714l-0.378-1.526c-1.364-5.86-3.457-10.762-6.157-14.853-5.226 8.021-8.871 13.111-9.587 12.868-8.020 9.789-41.453 19.282-25.763-21.389-4.699 2.741-8.845 6.995-12.409 13.030-3.862 6.59-6.643 14.327-8.317 23.131h45.086l-0.041 17.621h-46.963l0.041 9.762h53.322l-0.067 17.567h-51.513c1.85 8.939 4.631 16.716 8.44 23.212 6.603 11.262 15.042 16.69 25.777 16.69 6.859 0 12.558-2.106 17.405-6.617 4.888-4.591 8.386-11.126 10.478-19.592l0.364-1.472h20.052l-0.284 2.241c-1.661 12.423-7.035 22.793-16.001 30.854-9.034 7.966-19.781 12.072-32.015 12.072-16.392 0-30.004-7.615-40.4-22.658-6.738-9.627-11.316-21.334-13.733-34.756h-13.422l0.054-17.567h11.653c-0.040-1.526-0.081-3.106-0.040-4.902v-4.847h-11.639l-0.027-17.621h13.097c2.228-14.138 6.725-26.142 13.219-35.729 9.303-13.422 22.131-20.498 38.010-21.334 31.975-64.328 51.095-96.316 51.095-96.316 0.446-5.482 42.386-67.757 28.032-75.846-10.938 0.661-31.596 17.932-31.596 17.932-0.162-0.5-25.709 19.62-26.168 19.39-38.578 20.538-33.217-24.629-13.314-33.312 0.958-5.279 5.631-1.796 26.020-30.8 3.024-7.548 32.285-17.324 32.285-17.324 42.642-25.48 82.137-24.399 82.137-24.399 21.685-5.144 16.933-17.121 16.933-17.121l109.819 55.091z" horiz-adv-x="437" />
<glyph unicode="&#xe634;" d="M100.292 92.648h-17.35v23.349h24.643c5.077 5.614 12.356 8.916 20.763 8.916 7.155 0 14.86-2.229 23.474-6.825 0.977-0.454 2.174-1.156 3.508-2.091h3.44v-2.531c2.601-1.995 5.834-4.541 10.361-8.173 1.431-1.183 2.862-2.312 4.224-3.385l0.564 0.289 7.691-6.591c-4.197 8.848-8.847 17.626-11.476 22.606-4.527 8.572-6.976 13.25-8.214 16.882-0.661 1.211-1.665 3.068-2.945 5.435h-135.667v293.363h195.163v-224.883c5.518 3.096 12.025 5.243 19.662 5.243 1.211 0 2.422-0.289 3.632-0.426v241.45c-0.042 17.172-13.924 31.124-31.11 31.124h-179.601c-17.172 0-31.055-13.952-31.055-31.124v-364.678c0-17.144 13.883-31.096 31.055-31.096h96.536c-10.058 8.31-26.611 21.245-27.299 33.147zM190.182 466.916c4.389 0 7.953-3.55 7.953-7.953 0-4.348-3.564-7.953-7.953-7.953-4.403 0-7.966 3.605-7.966 7.953 0.014 4.403 3.564 7.953 7.966 7.953zM79.227 463.904h83.271v-9.081h-83.272v9.081zM401.443 28.364l-3.757 23.088c1.913 59.069-38.884 122.404-38.884 122.404-14.007 37.55-54.886 21.96-54.886 21.96-26.941 27.092-47.993-3.839-47.993-3.839-30.298 25.51-48.639-11.077-48.639-11.077-1.982-0.289-16.621 24.244-31.715 49.823 7.485 8.008 12.081 17.709 13.416 29.184l0.234 2.339h-20.089l-0.386-1.582c-0.99-4.279-2.367-8.063-4.059-11.421-5.463 9.246-10.567 17.791-14.709 24.478h1.307l-0.042 17.983h-15.823c-7.664 5.077-19.896 8.008-24.354 0h-7.705l0.041 9.921h54.336l-0.083 17.928h-52.492c1.885 9.081 4.733 17.006 8.6 23.625 6.742 11.476 15.356 17.006 26.28 17.006 6.99 0 12.796-2.146 17.736-6.742 4.967-4.678 8.531-11.365 10.663-19.938l0.386-1.5h20.419l-0.289 2.256c-1.692 12.686-7.168 23.24-16.319 31.413-9.205 8.173-20.171 12.356-32.624 12.356-16.718 0-30.559-7.719-41.154-23.061-6.866-9.838-11.531-21.767-14.007-35.416h-13.65l0.055-17.928h11.874c-0.041-1.555-0.097-3.151-0.041-4.995v-4.912h-11.874l-0.014-17.983h13.333c2.284-14.406 6.866-26.638 13.471-36.394 9.466-13.65 22.496-20.914 38.677-21.795 23.075-47.91 36.586-71.837 36.586-71.837 0.303-5.697 41.911-70.916 26.927-78.841-11.214 0.963-32.087 19.291-32.087 19.291-0.151-0.564-25.992 20.832-26.473 20.611-39.201 22.166-34.852-24.505-14.558-33.972 0.867-5.449 5.751-2.009 26.019-32.431 2.917-7.788 32.816-18.63 32.816-18.63 43.273-27.353 83.96-27.271 83.96-27.271 22.249-5.861 17.034-18.053 17.034-18.053l114.533 53.95zM113.763 250.124c-3.907 6.742-6.756 14.612-8.448 23.597h5.531c0.701-2.793 1.582-5.779 2.862-9.219 4.499-9.838 8.778-19.029 12.838-27.684-4.844 2.821-9.123 7.155-12.782 13.305z" horiz-adv-x="401" />
<glyph unicode="&#xe635;" d="M202.248 121.478c-3.092 5.306-12.814 22.184-27.895 50.971h-146.619v284.071h239.784v-256.567c2.714 0.635 5.509 1.053 8.493 1.053 5.806 0 11.544-1.323 17.242-3.848 0.594 0.5 1.323 0.972 1.971 1.445v262.926c0 13.718-12.233 24.871-27.369 24.871h-240.472c-15.163 0-27.383-11.153-27.383-24.871v-315.976c0-13.691 12.22-24.79 27.383-24.79h175.19c-0.095 0.216-0.23 0.473-0.324 0.716zM147.632 130.012c-8.993 0-16.27 6.616-16.27 14.745 0 8.156 7.278 14.745 16.27 14.745 8.979 0 16.27-6.589 16.27-14.745 0-8.115-7.304-14.745-16.27-14.745zM437.185 29.542l-4.212 22.305c0.418 57.33-40.642 117.806-40.642 117.806-14.502 36.050-53.793 19.942-53.793 19.942-26.788 25.654-46.461-4.875-46.461-4.875-30.029 24.021-46.92-11.896-46.92-11.896-3.214-0.608-43.044 66.485-60.058 91.976 9.33 8.169 14.109 18.782 14.109 31.433 0 10.842-4.024 19.942-11.95 27.166-7.845 7.142-19.686 12.611-35.376 16.324-10.707 2.579-18.336 5.698-22.535 9.263-4.199 3.645-6.211 8.223-6.211 14.217 0 6.886 2.228 12.058 6.778 15.851 4.631 3.767 11.22 5.752 19.605 5.752 8.020 0 14.19-1.904 18.376-5.617 4.159-3.74 6.819-9.627 7.804-17.485l0.256-1.877h21.603l-0.121 2.214c-0.621 12.638-5.361 22.656-13.934 29.961-6.481 5.482-14.718 8.912-24.574 10.262v17.336h-22.076v-17.877c-8.237-1.539-15.582-4.834-21.739-9.924-9.033-7.412-13.637-17.147-13.637-28.854 0-10.262 3.605-18.876 10.707-25.6 7.034-6.643 17.593-11.625 31.474-14.92 12.449-2.984 21.401-6.616 26.572-10.68 4.888-3.983 7.278-9.236 7.278-15.933 0-6.94-1.958-12.422-5.644-16.716-9.546 5.536-24.857 7.332-24.196-9.181h-0.013c-9.465 0-16.823 2.349-21.927 6.886-5.131 4.536-7.669 10.963-7.844 19.537l-0.040 2.026h-21.401l-0.432-5.59c0.081-10.316 4.901-19.619 14.218-27.639 7.696-6.481 16.621-10.734 26.612-12.476v-20.469h22.076v6.089c33.823-68.429 54.117-102.4 54.117-102.4 0.446-5.509 42.383-67.781 28.044-75.841-10.923 0.688-31.595 17.931-31.595 17.931-0.162-0.5-25.708 19.618-26.167 19.389-38.576 20.536-33.202-24.628-13.286-33.31 0.958-5.279 5.631-1.796 26.005-30.825 3.038-7.521 32.284-17.296 32.284-17.296 42.653-25.478 82.134-24.399 82.134-24.399 21.685-5.171 16.945-17.147 16.945-17.147l109.786 55.156z" horiz-adv-x="437" />
<glyph unicode="&#xe636;" d="M100.303 92.633h-17.366v23.352h24.645c5.078 5.587 12.385 8.889 20.779 8.889 7.155 0 14.862-2.202 23.463-6.825 0.991-0.426 2.174-1.156 3.523-2.064h3.468v-2.532c2.587-1.995 5.807-4.568 10.321-8.202 1.445-1.183 2.876-2.284 4.252-3.385l0.536 0.317 7.72-6.591c-4.225 8.848-8.848 17.6-11.476 22.609-4.541 8.573-6.99 13.252-8.256 16.885-0.647 1.211-1.637 3.041-2.931 5.408h-135.682v293.423h195.184v-224.935c5.505 3.068 12.013 5.243 19.65 5.243 1.238 0 2.422-0.289 3.661-0.426v241.503c0 17.174-13.953 31.1-31.1 31.1h-179.62c-17.174 0-31.072-13.926-31.072-31.1v-364.745c0-17.146 13.899-31.072 31.072-31.072h96.546c-10.059 8.284-26.614 21.247-27.316 33.15zM190.202 466.942c4.404 0 7.954-3.578 7.954-7.954s-3.536-7.954-7.954-7.954c-4.376 0-7.954 3.578-7.954 7.954s3.578 7.954 7.954 7.954zM79.263 463.901h83.267v-9.082h-83.267v9.082zM401.486 28.342l-3.798 23.091c1.913 59.048-38.861 122.416-38.861 122.416-13.981 37.526-54.906 21.935-54.906 21.935-26.93 27.095-47.971-3.839-47.971-3.839-30.315 25.512-48.644-11.050-48.644-11.050-2.312-0.344-21.797 32.998-39.163 62.461 3.412 6.151 5.353 13.031 5.353 20.779 0 11.023-4.142 20.298-12.206 27.659-7.982 7.28-20.077 12.853-36.067 16.665-10.912 2.628-18.646 5.807-22.953 9.412-4.279 3.688-6.344 8.408-6.344 14.518 0 6.99 2.257 12.288 6.936 16.127 4.706 3.839 11.421 5.889 19.967 5.889 8.147 0 14.463-1.995 18.728-5.752 4.225-3.784 6.935-9.839 7.927-17.793l0.275-1.913h22.018l-0.11 2.23c-0.619 12.88-5.45 23.118-14.188 30.563-6.605 5.559-15 9.054-25.044 10.458v17.627h-22.513v-18.192c-8.38-1.583-15.88-4.94-22.141-10.128-9.22-7.554-13.926-17.476-13.926-29.38 0-10.486 3.688-19.292 10.94-26.090 6.178-5.862 15.234-10.375 26.683-13.733-3.041-4.541-3.302-13.031 2.23-27.797 4.349-9.536 8.518-18.467 12.468-26.875-1.72-0.165-3.412-0.344-5.27-0.344-9.619 0-17.118 2.394-22.334 6.99-5.243 4.651-7.816 11.229-7.981 19.885l-0.041 2.119h-21.825l-0.427-5.697c0.11-10.513 4.995-19.994 14.463-28.113 7.871-6.688 16.981-10.968 27.177-12.743v-20.889h22.499v20.916c0.702 0.137 1.321 0.344 2.036 0.454 24.453-51.012 38.833-76.538 38.833-76.538 0.289-5.67 41.902-70.923 26.93-78.849-11.229 0.964-32.118 19.293-32.118 19.293-0.137-0.536-25.994 20.834-26.476 20.614-39.191 22.168-34.828-24.508-14.545-33.976 0.853-5.435 5.752-2.009 26.022-32.407 2.904-7.816 32.82-18.646 32.82-18.646 43.278-27.356 83.996-27.247 83.996-27.247 22.224-5.889 17.036-18.041 17.036-18.041l114.518 53.929z" horiz-adv-x="401" />
<glyph unicode="&#xe637;" d="M152.526 107.857c0 0 7.854 25.266 3.919 36.885l-45.839 138.492c0 0-2.773 17.365-21.161 11.138l-56.868-19.24c0 0-44.289-17.18-29.573-60.632l20.262-59.889c0 0 16.065-50.532 60.090-35.646 0 0 17.35 5.143 25.112-22.818l36.606-108.129c0 0 3.129-18.341 20.542-12.471 0 0 53.553 9.294 10.736 52.763 12.409 26.118-23.826 43.67-23.826 79.548zM388.907 267.509c12.656 13.555 17.877 33.368 11.51 52.19-6.382 18.884-22.524 31.369-40.835 34.499l-42.74 126.285c-5.562 16.451-13.338-6.6-13.338-6.6-31.401-125.107-170.744-163.045-170.744-163.045-16.142-5.484-8.939-18.341-8.939-18.341l40.37-119.314c4.617-13.772 19.054-8.892 19.054-8.892 152.681 51.678 237.341-27.202 237.341-27.202s17.103-10.921 10.952 4.384l-42.632 126.036zM412.995 429.253h9.527v-73.32zM415.474 260.786h73.351v-9.542h-61.965zM415.49 337.7h73.351v-9.512h-61.965z" horiz-adv-x="489" />
<glyph unicode="&#xe638;" d="M538.962 486.4h-538.962v-362.887h355.712l183.266-149.113-62.889 149.113h62.889v362.887zM326.281 422.665l68.772-0.265v-30.459l6.115-3.199v-130.37l-82.146 0.348v130.867l7.259 3.696v29.381zM125.001 398.587h134.546v-19.837h32.58v-103.375c-94.889 0-89.222-104.799-89.222-104.799h-29.73v87.797h-48.174v140.214zM345.901 398.139c0 8.187 6.628 14.798 14.798 14.798s14.765-6.596 14.765-14.798c0-8.12-6.579-14.765-14.765-14.765-8.17 0-14.798 6.645-14.798 14.765z" horiz-adv-x="539" />
<glyph unicode="&#xe639;" d="M538.928 486.4h-538.928v-362.864h355.689l183.255-149.136-62.885 149.136h62.885v362.864zM199.875 196.745l-68.735 0.332v30.424l-6.147 3.198v130.362l82.14-0.365v-130.826l-7.258-3.728v-29.397zM401.159 220.855h-134.537v19.835h-32.561v103.334c94.867 0 89.2 104.826 89.2 104.826h29.777v-87.808h48.121v-140.188zM180.272 221.269c0-8.153-6.629-14.764-14.798-14.764-8.186 0-14.764 6.595-14.764 14.764s6.562 14.798 14.764 14.798c8.169 0 14.798-6.645 14.798-14.798z" horiz-adv-x="539" />
<glyph unicode="&#xe63a;" d="M324.828 189.436h-9.984c-0.923 4.611-2.751 8.754-5.615 12.168-4.094 5.048-9.563 7.622-16.069 7.622-5.728 0-10.582-1.958-14.353-6.003-3.705-3.884-6.473-9.822-8.317-17.573-1.715-6.99-3.705-11.974-5.955-14.854-2.265-2.751-5.211-4.046-8.964-4.046-4.563 0-8.075 1.392-10.663 4.272-2.508 2.945-3.77 7.087-3.77 12.428 0 5.243 1.262 9.418 3.77 12.233 2.589 2.88 6.197 4.305 11.004 4.369l1.052 0.065v11.942l-3.107 0.259c-5.744-0.033-10.971-2.751-15.388-7.993-3.706-4.272-6.036-9.256-6.99-14.854h-11.44v-12.363h11.44c0.954-5.599 3.042-10.437 6.392-14.288 4.595-5.437 10.744-8.188 17.929-8.188 6.052 0 11.165 2.217 15.194 6.667 4.013 4.369 7.055 10.971 9.127 19.757 1.44 6.003 3.171 10.243 5.178 12.606 2.022 2.346 4.611 3.479 7.978 3.479 3.835 0 6.699-1.197 8.819-3.786 2.071-2.589 3.269-6.262 3.269-10.971 0-4.45-1.101-7.929-3.188-10.243-2.087-2.363-5.389-3.851-9.806-4.418l-0.987-0.097v-12.104l1.214 0.097c7.055 0.324 12.67 2.978 16.781 7.767 3.042 3.641 4.952 8.22 5.696 13.722h9.741v12.33zM0 486.4v-256.186h148.821v59.791h-89.047v102.462h98.983v-418.050h227.334v418.050h84.177v-102.462h-73.804v-59.791h133.563v256.186h-530.026zM187.399 12.426v342.029h46.716c-2.492-11.101-10.89-30.082-39.645-30.082v-277.514c35.486 0 42.136-22.152 43.107-34.418h-50.179zM208.661 183.433c0 35.178 28.609 63.772 63.755 63.772s63.804-28.609 63.804-63.772c0-35.147-28.658-63.804-63.804-63.804s-63.755 28.658-63.755 63.804zM357.385 12.426h-48.61c4.337 40.389 41.619 34.386 41.619 34.386v268.128c0 0-35.373-3.123-39.305 39.499h46.279v-342.013z" horiz-adv-x="530" />
<glyph unicode="&#xe63b;" d="M440.805 259.233c0 44.936-36.45 81.35-81.386 81.35h-216.994c-44.954 0-81.386-36.414-81.386-81.351 0 0-61.039-142.443-61.039-203.447 0-61.057 36.45-81.386 81.404-81.386h339.055c44.937 0 81.386 6.764 81.386 81.386 0 74.55-61.039 203.447-61.039 203.447zM422.714 406.15h-132.589l13.369 20.222c2.361-0.622 4.793-1.012 7.315-1.012 16.885 0 30.519 13.671 30.519 30.484 0 16.885-13.635 30.555-30.519 30.555-16.849 0-30.502-13.671-30.502-30.555 0-6.871 2.361-13.138 6.232-18.269l-20.791-31.425h-2.042l-19.441 30.893c4.119 5.202 6.675 11.683 6.675 18.802 0 16.884-13.671 30.555-30.537 30.555-16.849 0-30.502-13.671-30.502-30.555 0-16.814 13.671-30.484 30.502-30.484 2.308 0 4.545 0.284 6.694 0.799l12.57-20.009h-160.535v-40.71h343.582v40.71z" horiz-adv-x="502" />
<glyph unicode="&#xe63c;" d="M317.443 116.209c-39.774 0-72.106 32.353-72.106 72.127v50.489c0 39.753 32.333 72.106 72.106 72.106h228.361c10.239 0 19.938-2.155 28.768-6.031v90.18c0 31.856-25.846 57.681-57.702 57.681h-459.148c-9.347 0-18.136 1.264-25.928-2.673 0 19.918 26.053 19.462 26.053 19.462h461.055l-30.136 16.851c0 0-356.926 0-424.701 0-66.904 0-64.044-86.988-64.044-91.32v-362.999c0-31.897 25.825-57.681 57.702-57.681h459.148c31.856 0 57.702 25.784 57.702 57.681v90.159c-8.83-3.855-18.529-6.031-28.768-6.031h-228.361zM545.804 296.507h-228.361c-31.877 0-57.702-25.825-57.702-57.681v-50.489c0-31.897 25.825-57.681 57.702-57.681h228.361c31.877 0 57.702 25.784 57.702 57.681v50.489c0 31.856-25.825 57.681-57.702 57.681zM531.628 183.113c-16.83 0-30.467 13.638-30.467 30.447 0 16.83 13.638 30.489 30.467 30.489s30.467-13.638 30.467-30.489c0-16.809-13.617-30.447-30.467-30.447z" horiz-adv-x="604" />
<glyph unicode="&#xe63d;" d="M73.266 442.1h21.098v-24.106h24.624v-21.098h-24.624v-24.832h-21.098v24.832h-24.328v21.098h24.328zM87.044 256.454v0c3.245-0.311 5.585-1.244 5.585-2.252 0-1.304-3.364-2.222-7.615-2.4l0.237 4.549c0.608 0.059 1.245 0.059 1.793 0.103zM86.037 251.461c2.578-0.267 4.43-0.978 4.43-1.792 0-0.948-2.46-1.704-5.645-1.852l0.207 3.615c0.311 0 0.652 0 1.007 0.030zM83.519 312.399c-2.578 0-4.653 2.163-4.653 4.682 0 2.667 2.089 4.712 4.653 4.712s4.653-2.059 4.653-4.712c0-2.519-2.075-4.682-4.653-4.682zM80.91 256.899v0.029c0 0-0.029 0-0.059-0.029-4.43 0.37-7.719 1.511-7.719 2.83s2.889 2.37 6.978 2.8l-0.029 0.030c0.578-0.030 1.126-0.089 1.704-0.118l0.207-5.615c-0.356 0.015-0.741 0.074-1.082 0.074zM88.378 277.27c5.008-0.518 8.564-1.881 8.564-3.526 0-1.852-4.8-3.274-10.993-3.586l0.341 7.038c0.726 0.059 1.422 0.089 2.089 0.148v-0.074zM82.185 251.832c-3.852 0.267-6.8 1.185-6.8 2.37 0 1.007 2.193 1.852 5.319 2.252 0.4-0.060 0.844-0.118 1.274-0.118l0.207-4.504zM76.718 249.654c0 0.815 1.941 1.541 4.549 1.792v0.060c0.296-0.060 0.608-0.060 0.918-0.089l0.118-3.615c-3.126 0.148-5.585 0.904-5.585 1.852zM87.859 269.625v-0.089c4.489-0.43 7.719-1.674 7.719-3.096 0-1.704-4.341-3.038-9.986-3.393l0.311 6.43c0.681 0.060 1.289 0.060 1.956 0.148zM87.356 262.618v-0.089c3.941-0.429 6.771-1.481 6.771-2.8 0-1.482-3.852-2.667-8.889-2.889l0.296 5.704c0.666 0 1.245 0.029 1.823 0.074zM71.74 266.277c0 1.481 3.304 2.726 7.867 3.215v0.089c0.608-0.029 1.274-0.089 1.941-0.119l0.237-6.4c-5.645 0.192-10.016 1.526-10.046 3.215zM15.883 74.379h136.175v412.021h-136.175v-412.021zM30.965 304.207c5.986-5.986 14.994 0 14.994 0 14.12 14.149 29.395 0 29.395 0v-2.37h3.615v2.489c-4.978 2.030-8.534 6.83-8.534 12.505 0 7.467 6.075 13.482 13.542 13.482s13.483-6.015 13.483-13.482c0-5.556-3.364-10.297-8.105-12.357v-2.637h3.186v2.37c0 0 15.305 14.149 29.425 0 0 0 8.963-5.986 14.994 0 0 0-0.607-17.942-22.224-17.942 0 0-9.468-1.822-22.195 4v3.615h-3.186v-3.274h-2.37l-0.666-12.668c7.379 0.341 13.023 2.119 13.023 4.282-0.029 1.852-4.133 3.393-9.868 3.97v0.756c7.067-0.637 12.238-2.46 12.238-4.712 0.029-2.060-4.4-3.852-10.712-4.682 4.741-0.755 8.016-2.119 8.016-3.793 0-1.763-3.674-3.274-8.993-3.971 4.341-0.607 7.438-1.822 7.438-3.333 0-1.615-3.407-3.007-8.282-3.674 3.852-0.578 6.593-1.704 6.593-3.038s-2.889-2.519-6.978-3.067c3.007-0.489 5.126-1.452 5.126-2.459 0-1.185-2.638-2.222-6.311-2.667 2.311-0.341 3.882-1.067 3.882-1.881 0-1.126-2.919-2.059-6.682-2.222l-0.311-6.134h-1.971l-0.207 6.134c-3.852 0.178-6.83 1.096-6.83 2.222 0 0.874 1.704 1.585 4.222 1.97-3.467 0.459-5.867 1.423-5.867 2.578 0 1.007 1.823 1.852 4.623 2.341-4.222 0.608-7.231 1.792-7.231 3.185 0 1.333 2.549 2.459 6.311 3.038-4.682 0.607-7.927 1.941-7.927 3.496 0 1.541 3.126 2.83 7.615 3.467-5.438 0.726-9.201 2.223-9.201 4 0 1.734 3.215 3.067 8.016 3.822-5.853 0.815-9.986 2.46-9.986 4.46 0 2.311 5.408 4.252 12.816 4.919v-0.786c-5.867-0.637-10.134-2.223-10.134-4.133 0.059-2.089 5.497-3.734 12.505-4.075l-0.43 12.668h-1.852v3.274h-3.615v-3.615c-12.668-5.822-22.195-4-22.195-4-21.587-0.015-22.195 17.928-22.195 17.928zM25.869 407.075c0 32.121 26.017 58.138 58.108 58.138s58.108-26.017 58.108-58.138c0-32.091-26.017-58.108-58.108-58.108s-58.108 26.017-58.108 58.108zM70.406 273.73c0 1.644 3.645 3.037 8.771 3.526 0.697-0.029 1.392-0.089 2.148-0.089l0.237-7.038c-6.297 0.311-11.156 1.749-11.156 3.601zM72.57 301.836h2.785v-7.956zM78.97 301.836h0.844v-7.956zM92.541 301.836h1.674v-7.956zM87.015 301.836h2.341v-7.956zM80.837 291.212h6.163v-0.607zM86.319 277.938l-0.029-0.755c-0.815-0.030-1.511-0.119-2.371-0.119-0.918-0.029-1.734 0.089-2.608 0.119l-0.059 0.755c0.948-0.089 1.823-0.148 2.8-0.148 0.844 0 1.481 0.060 2.267 0.148zM85.948 270.144l-0.029-0.667c-0.844-0.029-1.555-0.118-2.4-0.118-0.697 0-1.274 0.089-1.971 0.089v0.697c0.726-0.089 1.392-0.148 2.118-0.148 0.8 0.015 1.496 0.060 2.281 0.148zM88.378 277.908c0.978-0.119 1.793-0.237 2.638-0.37-0.815-0.060-1.704-0.119-2.638-0.207v0.578zM79.177 277.27c-1.067 0.089-2.148 0.208-3.126 0.297 0.918 0.207 1.823 0.341 2.83 0.429l0.296-0.726zM85.593 263.062l-0.059-0.519c-0.697-0.059-1.274-0.178-2-0.178-0.608 0-1.156 0.089-1.763 0.089v0.607c0.608-0.029 1.215-0.119 1.912-0.119 0.666 0 1.245 0.089 1.912 0.119zM87.859 270.144c0.815-0.119 1.511-0.267 2.163-0.37-0.666-0.060-1.422-0.089-2.163-0.148v0.519zM79.607 269.567c-0.815 0.119-1.644 0.119-2.37 0.178 0.755 0.119 1.511 0.267 2.37 0.311v-0.489zM81.978 256.351v0.489c0.578-0.030 1.097-0.060 1.674-0.060s1.067 0.030 1.585 0.060v-0.489c-0.578-0.029-1.097-0.060-1.734-0.060-0.504 0-0.978 0.030-1.526 0.060zM87.356 263.033c0.697-0.060 1.215-0.178 1.823-0.267-0.578-0.059-1.186-0.059-1.823-0.148v0.415zM80.066 262.573c-0.874 0.060-1.704 0.119-2.519 0.208 0.785 0.089 1.481 0.208 2.311 0.296l0.207-0.503zM85.015 251.802v-0.37c-0.4-0.030-0.726-0.060-1.126-0.060-0.608 0-1.156 0.060-1.704 0.060v0.4c0.578 0 1.156-0.089 1.793-0.089 0.371 0 0.697 0.060 1.037 0.060zM80.91 256.899l0.178-0.429c-0.148 0-0.237 0-0.371 0-0.755 0-1.541 0-2.222 0.089 0.726 0.178 1.541 0.297 2.37 0.341h0.044zM87.044 256.899c0.637-0.089 1.186-0.178 1.763-0.237-0.578-0.119-1.186-0.148-1.763-0.208v0.445zM83.608 247.698c0.4 0 0.815 0.030 1.215 0.119v-0.37c-0.43-0.030-0.844-0.060-1.304-0.060-0.43 0-0.785 0.030-1.186 0.060l-0.029 0.37c0.43-0.089 0.829-0.119 1.304-0.119zM81.251 251.506c-0.519 0.030-1.037 0.030-1.541 0.119 0.46 0.030 0.918 0.119 1.422 0.178l0.118-0.297zM86.037 251.802c0.578-0.089 1.067-0.178 1.585-0.267-0.489-0.030-1.067-0.030-1.585-0.089v0.356zM78.97 304.325v1.541h10.386v-1.392c-1.674-0.726-3.496-1.096-5.378-1.096-1.793-0.015-3.467 0.341-5.008 0.948zM0 39.131h238.451c21.987-38.596 63.487-64.731 111.061-64.731 70.466 0 127.848 57.353 127.848 127.818 0 45.575-24.076 85.534-60.079 108.202v109.699h-251.089v-245.74h58.597c0.978-4.312 2.163-8.505 3.526-12.594h-228.316v-22.654zM193.587 163.779h43.929c-7.037-12.697-11.779-26.772-14.119-41.618h-29.81v41.618zM193.587 223.266h49.545v-41.589h-49.545v41.589zM244.036 245.549h-49.516v41.619h49.516v-41.619zM266.082 223.236h42.596c-15.794-5.349-30.21-13.69-42.596-24.373v24.373zM316.486 245.52h-49.486v41.589h49.486v-41.589zM390.805 245.52h-49.516v41.589h49.515v-41.589zM231.901 102.218c0 64.82 52.731 117.61 117.61 117.61 64.85 0 117.61-52.775 117.61-117.61 0-64.88-52.76-117.61-117.61-117.61-64.88 0.015-117.61 52.731-117.61 117.61zM246.614 102.218c0-56.805 46.093-102.868 102.898-102.868s102.868 46.063 102.868 102.868-46.063 102.868-102.868 102.868-102.898-46.063-102.898-102.868zM376.803 56.525c-5.096-4.401-11.453-7.231-18.95-8.475v-15.127h-16.327v15.127c-7.349 1.304-13.971 4.401-19.676 9.231-6.889 5.926-10.445 12.786-10.505 20.432l0.296 4.163h15.883v-1.555c0.118-6.282 2-11.023 5.793-14.445 3.793-3.334 9.231-5.067 16.238-5.067 7.038 0 12.505 1.733 16.372 5.067 3.822 3.408 5.704 8.045 5.704 14.090 0 4.949-1.763 8.83-5.378 11.808-3.822 2.978-10.416 5.675-19.676 7.868-10.238 2.459-18.091 6.163-23.262 11.082-5.26 4.919-7.926 11.349-7.926 18.89 0 8.682 3.408 15.883 10.104 21.38 4.578 3.733 9.986 6.193 16.060 7.319v13.245h16.327v-12.816c7.319-1.007 13.394-3.556 18.224-7.615 6.312-5.378 9.838-12.816 10.297-22.165l0.089-1.615h-16.002l-0.207 1.363c-0.697 5.822-2.667 10.164-5.764 12.964-3.126 2.726-7.645 4.134-13.601 4.134-6.193 0-11.053-1.511-14.505-4.252-3.393-2.786-5.008-6.652-5.008-11.719 0-4.459 1.511-7.837 4.608-10.534 3.067-2.637 8.771-4.919 16.697-6.83 11.601-2.786 20.342-6.83 26.165-12.090 5.853-5.349 8.83-12.090 8.83-20.061-0.029-9.646-3.704-17.661-10.904-23.794z" horiz-adv-x="477" />
<glyph unicode="&#xe63e;" d="M271.040 360.575h6.365c-0.95 18.929-16.092 34.084-35.020 35.034 0-0.026 0-0.077 0-0.103v-6.865c0-1.078-0.796-1.899-1.861-1.899-1.026 0-1.861 0.822-1.861 1.899v6.879c0 0.025 0 0.077 0 0.102-18.929-0.949-34.058-16.118-35.020-35.034h6.288c1.026 0 1.899-0.795 1.899-1.861 0-1.026-0.873-1.899-1.899-1.899h-6.288c0.95-18.877 16.092-34.032 35.020-34.969v6.57c0 1.078 0.821 1.899 1.861 1.899 1.053 0 1.861-0.821 1.861-1.899v-6.57c18.929 0.924 34.058 16.092 35.020 34.969h-6.365c-1.026 0-1.861 0.873-1.861 1.899 0.013 1.053 0.834 1.848 1.861 1.848zM264.623 356.815h-21.059c-0.629-1.001-1.732-1.733-3.029-1.733-2.002 0-3.631 1.604-3.631 3.632 0 0.18 0.052 0.295 0.077 0.424l-14.861 14.886c-0.732 0.706-0.732 1.899 0 2.63 0.732 0.757 1.951 0.757 2.656 0l14.565-14.565c0.398 0.154 0.783 0.257 1.207 0.257 1.309 0 2.412-0.731 3.029-1.784h21.058c1.026 0 1.861-0.796 1.861-1.861-0.013-1.001-0.847-1.887-1.873-1.887zM168.404 398.983l73.711 73.66 99.428-99.454 6.865 6.917-34.161 34.212-72.132 72.082-1.578-1.604-106.345-106.319 6.865-6.865zM155.546 291.381h-145.818l-9.727-51.831h155.546zM325.656 239.549h155.494l-9.676 51.831h-145.818zM155.546 86.275v143.573h-124.747v-143.573h124.747zM121.257 203.528h25.922v-22.688h-25.922v22.688zM121.090 168.739h25.935v-22.688h-25.935v22.688zM120.23 132.127h25.922v-22.637h-25.922v22.637zM80.204 203.528h25.897v-22.688h-25.897v22.688zM80.050 168.739h25.922v-22.688h-25.922v22.688zM79.204 132.127h25.922v-22.637h-25.922v22.637zM41.18 203.528h25.896v-22.688h-25.897v22.688zM41.001 168.739h25.922v-22.688h-25.922v22.688zM40.154 132.127h25.922v-22.637h-25.922v22.637zM424.006 198.19c-2.682 0-5.287-0.231-7.892-0.423v5.762h25.922v-6.622c2.836-0.398 5.62-0.847 8.367-1.45v34.392h-124.747v-90.227c-5.313-9.779-9.201-20.43-11.409-31.684v282.923l-72.132 72.055-73.711-73.685v-302.955h143.688c0-2.413 0.205-4.736 0.372-7.096h-305.971v-16.195h308.063c10.779-50.548 55.719-88.597 109.45-88.597 61.687 0 111.889 50.176 111.889 111.889s-50.202 111.914-111.889 111.914zM240.536 314.505c-24.382 0-44.209 19.827-44.209 44.209 0 24.408 19.827 44.157 44.209 44.157 24.408 0 44.183-19.749 44.183-44.157 0.013-24.382-19.775-44.209-44.183-44.209zM400.971 203.528v-7.764c-9.124-1.899-17.748-5.017-25.935-8.995v16.772h25.935zM336.038 203.528h25.922v-22.688h-25.922v22.688zM335.884 168.739h12.73c-4.607-4.209-8.868-8.803-12.73-13.731v13.731zM424.006-16.682c-56.798 0-102.957 46.198-102.957 102.957 0 56.746 46.172 102.932 102.957 102.932 56.746 0 102.932-46.198 102.932-102.932 0-56.772-46.185-102.957-102.932-102.957zM424.006 176.335c-49.752 0-90.086-40.308-90.086-90.060 0-49.727 40.333-90.060 90.086-90.060 49.701 0 90.034 40.333 90.034 90.060 0 49.752-40.333 90.060-90.034 90.060zM447.862 46.301c-4.466-3.889-10.048-6.365-16.541-7.392v-13.282h-14.308v13.256c-6.467 1.103-12.229 3.837-17.221 8.098-6.070 5.159-9.149 11.178-9.226 17.851l0.269 3.632h13.86l0.026-1.334c0.128-5.518 1.758-9.702 5.082-12.678 3.285-2.887 8.072-4.414 14.206-4.414s10.908 1.527 14.308 4.414c3.362 2.977 4.992 7.019 4.992 12.332 0 4.363-1.527 7.764-4.684 10.33-3.337 2.63-9.149 4.992-17.196 6.891-8.97 2.156-15.861 5.389-20.404 9.702-4.607 4.337-6.942 9.945-6.942 16.593 0 7.572 2.977 13.885 8.841 18.671 3.966 3.285 8.752 5.466 14.065 6.442v11.55h14.308v-11.228c6.365-0.873 11.704-3.080 15.887-6.622 5.57-4.761 8.649-11.255 9.022-19.403l0.103-1.45h-14.014l-0.154 1.232c-0.629 5.069-2.361 8.868-5.069 11.305-2.707 2.413-6.712 3.632-11.883 3.632-5.441 0-9.702-1.309-12.678-3.709-2.977-2.451-4.44-5.813-4.44-10.253 0-3.914 1.334-6.865 4.029-9.201 2.733-2.336 7.674-4.363 14.616-6.044 10.151-2.387 17.851-5.942 22.906-10.574 5.108-4.659 7.726-10.548 7.726-17.568 0.051-8.418-3.131-15.438-9.483-20.776z" horiz-adv-x="536" />
<glyph unicode="&#xe63f;" d="M66.071 486.4v-261.796h96c2.039 10.822 4.207 22.077 6.246 32.963h-58.428v53.821c12.797-2.858 34.553-12.54 34.553-45.664h25.369c4.608 24.614 8.429 45.728 9.28 52.054 3.452 25.337 34.312 32.048 35.629 32.37l12.989 2.697-11.817-87.121h248.213c0 40.831 25.529 48.538 39.675 49.613v-57.77h-288.979l-4.48-32.963h337.26v261.796h-481.51zM306.786 282.053c-40.478 0-73.473 32.964-73.473 73.441s32.995 73.441 73.473 73.441c40.542 0 73.473-32.964 73.473-73.441s-32.915-73.441-73.473-73.441zM503.763 397.4c-46.531 4.962-39.611 47.848-39.611 47.848h-308.793c0 0 3.581-40.671-45.471-45.182v53.274h393.875v-55.94zM195.629 181.701l21.018 155.103c0 0-25.658-5.363-28.291-24.421-1.975-14.804-19.187-104.863-26.91-145.036l-55.008-23.089c-4.48 10.517-13.053 18.256-23.715 22.623-13.487 5.524-30.138 5.587-46.097-1.060-28.596-11.978-43.56-41.136-33.493-65.172 4.479-10.661 13.102-18.464 23.828-22.896 13.487-5.491 30.202-5.524 46.097 1.092 6.936 2.986 13.102 6.937 18.32 11.577 0.064 0 0.064 0.096 0.129 0.096 0.37 0.401 0.883 0.787 1.284 1.221 30.956 29.945 53.788 39.948 66.954 43.175 0.321-13.584-3.356-38.166-24.309-75.897-0.321-0.53-0.562-1.027-0.883-1.541 0-0.096 0-0.128-0.064-0.128h0.064c-3.195-6.278-5.427-13.231-6.423-20.728-2.328-17.051 2.103-33.172 10.918-44.813 7-9.184 16.811-15.526 28.259-17.051 25.803-3.452 50.112 18.529 54.222 49.26 2.328 17.084-2.071 33.172-10.918 44.813-6.936 9.12-16.65 15.398-27.97 17.003l7.996 59.087c36.785 17.902 119.33 57.914 133.025 63.695 4.64 1.943 7.964 5.138 10.324 8.847h-53.098l-85.258-35.757zM63.245 102.239c-9.008-3.789-19.011-4.175-26.718-0.995-3.388 1.349-7.899 4.079-10.035 9.152-4.544 10.918 4.576 25.594 19.91 32.016 9.184 3.789 18.914 4.271 26.718 1.027 3.42-1.381 7.932-4.111 10.1-9.216 4.528-10.902-4.608-25.546-19.974-31.984zM190.475 53.509c5.138-6.743 7.274-16.249 5.957-26.091-2.232-16.49-14.049-29.158-25.754-27.569-5.491 0.755-9.28 4.384-11.512 7.305-5.042 6.615-7.242 16.377-5.957 26.091 2.232 16.49 14.017 29.158 25.754 27.569 5.491-0.787 9.328-4.416 11.512-7.305zM270.627 358.448v-13.519h28.692v-7.771h-28.692v-12.829h28.692v-23.683h15.269v23.683h28.532v12.829h-28.532v7.771h28.532v13.519h-22.767l28.13 51.926h-17.887l-19.38-37.797c-1.911-3.677-3.324-6.712-4.512-9.055-1.027 2.44-2.377 5.234-4.111 8.397l-20.536 38.455h-16.907l28.163-51.926h-22.688z" horiz-adv-x="548" />
<glyph unicode="&#xe640;" d="M66.039 486.4v-261.796h96c2.039 10.822 4.19 22.077 6.23 32.963h-58.445v53.821c12.829-2.858 34.633-12.54 34.633-45.664h25.337c4.608 24.614 8.429 45.728 9.297 52.054 3.436 25.337 34.296 32.048 35.612 32.37l12.974 2.697-11.802-87.121h248.229c0 40.831 25.497 48.538 39.642 49.613v-57.77h-288.979l-4.464-32.963h337.245v261.796h-481.51zM306.786 282.053c-40.51 0-73.473 32.964-73.473 73.441s32.964 73.441 73.473 73.441c40.493 0 73.457-32.964 73.457-73.441s-32.947-73.441-73.457-73.441zM503.747 397.4c-46.531 4.962-39.627 47.848-39.627 47.848h-308.809c0 0 3.629-40.671-45.487-45.182v53.274h393.923v-55.94zM195.596 181.701l21.017 155.103c0 0-25.658-5.363-28.243-24.421-2.007-14.804-19.22-104.863-26.942-145.036l-54.993-23.089c-4.495 10.501-13.070 18.256-23.715 22.607-13.471 5.524-30.169 5.587-46.13-1.060-28.548-11.978-43.529-41.136-33.477-65.172 4.447-10.661 13.102-18.464 23.811-22.896 13.487-5.491 30.234-5.524 46.13 1.092 6.953 2.986 13.102 6.937 18.288 11.577 0.064 0 0.097 0.096 0.16 0.096 0.385 0.401 0.851 0.787 1.252 1.221 30.989 29.945 53.82 39.948 66.987 43.175 0.321-13.584-3.388-38.166-24.325-75.897-0.321-0.53-0.562-1.027-0.867-1.541 0-0.096-0.016-0.128-0.064-0.128h0.032c-3.195-6.278-5.395-13.231-6.439-20.728-2.28-17.051 2.119-33.172 10.935-44.813 7-9.184 16.811-15.526 28.259-17.051 25.819-3.452 50.079 18.529 54.238 49.26 2.296 17.084-2.088 33.172-10.951 44.813-6.92 9.12-16.667 15.398-27.986 17.003l8.028 59.087c36.801 17.902 119.329 57.914 133.090 63.695 4.592 1.943 7.916 5.138 10.292 8.847h-53.114l-85.274-35.741zM63.261 102.239c-9.023-3.789-19.011-4.175-26.749-0.995-3.42 1.349-7.899 4.079-10.019 9.152-4.576 10.918 4.576 25.594 19.893 32.016 9.184 3.789 18.914 4.271 26.734 1.027 3.388-1.381 7.948-4.111 10.084-9.216 4.544-10.902-4.576-25.546-19.942-31.984zM190.458 53.509c5.138-6.743 7.305-16.249 5.989-26.091-2.28-16.49-14.065-29.158-25.754-27.569-5.491 0.755-9.28 4.384-11.512 7.305-5.058 6.615-7.274 16.377-5.973 26.091 2.264 16.49 14.017 29.158 25.754 27.569 5.459-0.787 9.297-4.416 11.496-7.305zM272.185 348.381h17.18c0.546-3.693 0.61-6.615 0.61-10.003 0-11.159-6.92-21.516-18.047-27.103l-0.755-0.369v-10.26h71.257v14.515h-47.382c4.736 4.608 7.916 9.971 9.538 16.056 1.429 5.588 1.188 11.287 0.803 17.148h22.382v12.942h-24.036c-0.819 4.48-1.606 9.377-1.606 15.96 0 8.558 2.922 18.882 16.634 18.882 6.053 0 13.182-3.982 16.634-5.828l2.826-1.574-0.113 16.972-0.642 0.369c-2.601 1.637-8.493 4.303-18.706 4.303-19.444 0-33.060-13.551-33.060-32.964 0-5.459 0.723-10.982 1.558-16.12h-15.060v-12.925z" horiz-adv-x="548" />
<glyph unicode="&#xe641;" d="M265.184 352.058l-0.032-12.668h9.65c1.734-9.601 5.026-18.063 9.875-25 7.482-10.79 17.245-16.249 29.062-16.249 8.783 0 16.522 2.955 23.024 8.687 6.438 5.797 10.308 13.231 11.496 22.173l0.209 1.606h-14.402l-0.273-1.028c-1.526-6.085-4.030-10.79-7.546-14.082-3.484-3.26-7.579-4.768-12.491-4.768-7.723 0-13.776 3.917-18.545 12.010-2.729 4.64-4.721 10.292-6.053 16.651h37.026l0.064 12.668h-38.342l-0.032 6.968h33.782l0.016 12.701h-32.418c1.188 6.342 3.179 11.881 5.957 16.65 4.769 8.060 10.838 11.946 18.577 11.946 4.962 0 9.2-1.638 12.668-4.897 3.548-3.356 6.101-8.285 7.546-14.515l0.273-1.059h14.178l-0.176 1.606c-1.027 9.055-4.801 16.618-11.272 22.543-6.454 5.892-14.29 8.911-23.233 8.911-12.54 0-22.511-5.234-29.672-15.494-4.673-6.904-7.899-15.494-9.505-25.69h-9.409v-12.701h8.365v-3.452c-0.032-1.316 0-2.44 0.048-3.516h-8.413zM66.055 486.4v-261.796h96c2.055 10.822 4.174 22.077 6.214 32.963h-58.445v53.821c12.813-2.858 34.617-12.54 34.617-45.664h25.352c4.592 24.614 8.429 45.728 9.297 52.054 3.42 25.337 34.312 32.048 35.629 32.37l12.958 2.697-11.802-87.121h248.245c0 40.831 25.481 48.538 39.611 49.613v-57.77h-288.979l-4.447-32.963h337.228v261.796h-481.477zM306.786 282.053c-40.526 0-73.473 32.964-73.473 73.441s32.947 73.441 73.473 73.441c40.51 0 73.457-32.964 73.457-73.441s-32.931-73.441-73.457-73.441zM503.731 397.4c-46.498 4.962-39.611 47.848-39.611 47.848h-308.793c0 0 3.613-40.671-45.487-45.182v53.274h393.906v-55.94zM195.596 181.701l21.034 155.103c0 0-25.674-5.363-28.259-24.421-1.991-14.804-19.187-104.863-26.926-145.036l-55.008-23.089c-4.48 10.517-13.086 18.256-23.715 22.623-13.487 5.524-30.169 5.587-46.097-1.060-28.58-11.978-43.544-41.136-33.477-65.172 4.447-10.661 13.102-18.464 23.811-22.896 13.471-5.491 30.218-5.524 46.114 1.092 6.953 2.986 13.102 6.937 18.288 11.577 0.064 0 0.081 0.096 0.144 0.096 0.385 0.401 0.867 0.787 1.269 1.221 30.989 29.945 53.804 39.948 66.97 43.175 0.321-13.584-3.372-38.166-24.325-75.897-0.337-0.53-0.578-1.027-0.867-1.541 0-0.096-0.032-0.128-0.064-0.128h0.032c-3.179-6.278-5.395-13.231-6.439-20.728-2.264-17.051 2.151-33.172 10.951-44.813 7.017-9.184 16.811-15.526 28.259-17.051 25.819-3.452 50.112 18.529 54.238 49.26 2.296 17.084-2.088 33.172-10.935 44.813-6.92 9.12-16.65 15.398-28.002 17.003l8.028 59.087c36.801 17.902 119.345 57.914 133.074 63.695 4.608 1.943 7.916 5.138 10.292 8.847h-53.13l-85.258-35.757zM63.261 102.239c-9.023-3.789-19.026-4.175-26.749-0.995-3.404 1.349-7.916 4.079-10.035 9.152-4.576 10.918 4.592 25.594 19.909 32.016 9.152 3.789 18.914 4.271 26.718 1.027 3.404-1.381 7.948-4.111 10.1-9.216 4.528-10.902-4.576-25.546-19.942-31.984zM190.458 53.509c5.122-6.743 7.29-16.249 5.973-26.091-2.28-16.49-14.065-29.158-25.754-27.569-5.475 0.755-9.28 4.384-11.512 7.305-5.042 6.615-7.257 16.377-5.957 26.091 2.248 16.49 14.017 29.158 25.738 27.569 5.491-0.787 9.297-4.416 11.512-7.305z" horiz-adv-x="548" />
<glyph unicode="&#xe642;" d="M309.522 364.376c-6.904 1.638-11.785 3.677-14.498 5.989-2.697 2.328-3.998 5.298-3.998 9.184 0 4.416 1.429 7.707 4.351 10.163 2.971 2.376 7.209 3.757 12.62 3.757 5.138 0 9.135-1.284 11.817-3.677 2.697-2.441 4.399-6.214 5.026-11.351l0.161-1.124h13.921l-0.080 1.445c-0.385 8.124-3.436 14.579-8.991 19.315-4.175 3.452-9.457 5.683-15.799 6.55v11.239h-14.241v-11.512c-5.298-1.060-10.019-3.163-14-6.455-5.812-4.704-8.767-11.014-8.767-18.528 0-6.583 2.28-12.17 6.92-16.489 4.512-4.271 11.336-7.498 20.246-9.601 8.028-1.975 13.776-4.271 17.084-6.872 3.179-2.601 4.688-5.989 4.688-10.324 0-5.234-1.637-9.28-4.961-12.267-3.388-2.89-8.156-4.351-14.274-4.351-6.101 0-10.822 1.477-14.113 4.351-3.291 2.987-4.945 7.145-5.026 12.636l-0.048 1.22h-13.776l-0.273-3.548c0.048-6.647 3.131-12.636 9.151-17.774 4.961-4.238 10.709-6.904 17.132-8.028v-13.198h14.241v13.214c6.471 1.124 12.026 3.516 16.489 7.369 6.278 5.298 9.425 12.363 9.425 20.663 0 6.936-2.569 12.892-7.69 17.5-4.978 4.608-12.636 8.092-22.735 10.5zM66.053 486.4v-261.788h96.013c2.039 10.79 4.174 22.077 6.214 32.994h-58.442v53.787c12.813-2.858 34.6-12.54 34.6-45.663h25.368c4.592 24.582 8.413 45.695 9.296 52.084 3.436 25.304 34.295 32.047 35.612 32.304l12.957 2.697-11.801-87.086h248.237c0 40.861 25.497 48.536 39.625 49.644v-57.769h-288.971l-4.48-32.995h337.234v261.788h-481.462zM306.76 282.059c-40.493 0-73.455 32.93-73.455 73.439 0 40.476 32.947 73.438 73.455 73.438 40.524 0 73.471-32.962 73.471-73.438 0.016-40.508-32.93-73.439-73.471-73.439zM503.731 397.404c-46.514 4.929-39.625 47.878-39.625 47.878h-308.767c0 0 3.596-40.733-45.502-45.213v53.305h393.894v-55.97zM195.607 181.679l21.017 155.098c0 0-25.673-5.331-28.258-24.404-1.991-14.803-19.186-104.86-26.925-145.063l-55.007-23.056c-4.48 10.533-13.085 18.272-23.715 22.639-13.471 5.491-30.169 5.555-46.112-1.060-28.563-12.010-43.527-41.135-33.476-65.17 4.447-10.693 13.102-18.496 23.826-22.895 13.47-5.491 30.217-5.555 46.112 1.060 6.936 2.954 13.102 6.904 18.287 11.576 0.081 0.064 0.081 0.096 0.144 0.096 0.401 0.401 0.867 0.819 1.269 1.252 30.987 29.976 53.787 39.914 66.969 43.158 0.337-13.551-3.388-38.164-24.309-75.863-0.321-0.498-0.578-1.060-0.867-1.541 0-0.064-0.032-0.096-0.048-0.192h0.016c-3.195-6.214-5.394-13.166-6.439-20.663-2.264-17.051 2.136-33.203 10.934-44.812 7.017-9.216 16.81-15.526 28.274-17.051 25.802-3.516 50.094 18.529 54.236 49.227 2.296 17.084-2.103 33.203-10.95 44.812-6.92 9.12-16.666 15.43-27.985 17.035l8.028 59.085c36.799 17.902 119.342 57.913 133.069 63.693 4.624 1.942 7.916 5.138 10.291 8.798h-53.112l-85.272-35.756zM63.26 102.219c-9.023-3.789-19.026-4.142-26.733-0.995-3.404 1.381-7.916 4.111-10.035 9.216-4.576 10.853 4.592 25.56 19.893 32.015 9.184 3.757 18.93 4.175 26.716 0.995 3.404-1.413 7.948-4.175 10.099-9.216 4.528-10.934-4.576-25.545-19.941-32.015zM190.452 53.49c5.154-6.712 7.305-16.248 5.989-26.058-2.264-16.522-14.048-29.19-25.754-27.567-5.491 0.723-9.28 4.351-11.512 7.305-5.042 6.615-7.257 16.377-5.94 26.091 2.248 16.489 14 29.125 25.721 27.567 5.475-0.755 9.296-4.416 11.496-7.337z" horiz-adv-x="548" />
<glyph unicode="&#xe643;" d="M142.162 246.811h55.401v-11.085h-47.987zM301.552 306.028h-267.385v-98.65h-34.167v-57.692h34.167v-81.794h267.385v90.228h34.155v57.668h-34.155v90.24zM54.958 266.523h222.805v-79.575h-222.805v79.575zM83.294 83.403c-14.228 0-25.757 11.505-25.757 25.733 0 14.252 11.529 25.769 25.757 25.769 14.204 0 25.733-11.529 25.733-25.769 0-14.228-11.529-25.733-25.733-25.733zM209.476 81.855h-79.215v65.37h79.215v-65.37zM252.401 83.403c-14.24 0-25.757 11.505-25.757 25.733 0 14.252 11.529 25.769 25.757 25.769 14.216 0 25.757-11.529 25.757-25.769 0.012-14.228-11.541-25.733-25.757-25.733zM34.167 27.45h40.106v-53.050h-35.99zM262.922 27.45h38.63v-53.050h-35.99zM28.601 61.377h278.494v-25.541h-275.926zM202.002 397.851c11.157 5.807 22.794 15.884 32.151 28.733 18.199 24.978 20.839 50.938 5.903 58.041-2.543 1.188-5.411 1.775-8.601 1.775-15.248 0-36.279-13.496-51.358-34.215-5.050-7.006-8.829-14.012-11.433-20.719-2.591 6.706-6.322 13.712-11.397 20.719-15.080 20.719-36.135 34.215-51.406 34.215-3.119 0-5.999-0.588-8.578-1.775-14.936-7.102-12.272-33.063 5.903-58.041 9.382-12.837 21.031-22.914 32.176-28.733h-135.36v-72.101h150.284v67.038c1.464-0.216 2.915-0.468 4.295-0.468 3.167 0 6.059 0.612 8.625 1.799 2.256 1.079 3.995 2.76 5.458 4.667 1.464-1.896 3.215-3.587 5.506-4.667 2.543-1.2 5.47-1.799 8.637-1.799 1.356 0 2.82 0.252 4.247 0.468v-67.038h150.284v72.101h-135.336zM153.811 406.777c-6.262 0.612-21.858 8.722-35.234 27.089-14.025 19.255-14.408 34.239-12.153 38.15 6.082-0.468 21.93-8.529 35.462-27.113 4.115-5.627 7.39-11.601 9.79-17.72l5.987-15.368-3.851-5.038zM183.683 406.549l-4.079 5.063 6.095 15.584c2.363 6.047 5.638 12.045 9.766 17.72 13.544 18.607 29.332 26.645 35.487 27.113 2.22-3.911 1.859-18.883-12.153-38.15-13.593-18.643-29.428-26.717-35.114-27.329zM22.29 318.12h-22.29v-101.769h28.684v94.967h278.362v-88.608h28.649v95.411h-22.278z" horiz-adv-x="337" />
<glyph unicode="&#xe644;" d="M200.667 346.486h-57.133l-33.382-372.086h453.938l-33.362 372.086h-57.133v3.45c0 75.236-61.228 136.464-136.464 136.464-29.287 0-56.47-9.402-78.705-25.212-0.967 1.157-1.782 2.332-2.995 3.185-9.744 6.881-26.368 4-41.988-1.478l-49.437 23.505-164.007-66.649 36.244-89.188 163.344 66.422 3.45 8.151c2.369-2.673 4.474-4.852 6.559-7.032-5.668-14.994-8.928-31.202-8.928-48.167v-3.45zM225.879 346.486c2.71 12.587 7.583 24.359 14.103 34.993 5.63 1.782 10.103 7.412 14.293 18.69 20.775 22.065 50.196 35.979 82.857 35.979 54.498 0 100.106-38.462 111.252-89.662h-222.505zM258.274 439.788c-0.19-2.408-0.436-4.815-1.005-7.545-0.341-1.592-0.702-3.298-1.043-4.928-11.506-8.891-21.629-19.392-29.723-31.543 7.147 17.022 18.141 31.978 31.77 44.016zM337.132 469.7c49.76 0 92.486-30.538 110.551-73.853-23.808 35.77-64.45 59.351-110.551 59.351-27.656 0-53.285-8.663-74.611-23.221 0.891 4.436 1.251 8.436 1.251 12.189 20.302 15.791 45.665 25.534 73.359 25.534zM192.042 404.662l-150.321-61.133-28.737 70.706 150.643 61.265 37.059-17.629c-6.445-2.805-12.226-5.743-16.776-8.113-0.246 0.171-0.531 0.322-0.834 0.474-5.592 2.37-12.075-0.303-14.406-5.895-2.369-5.63 0.227-12.094 5.857-14.464 5.63-2.408 12.075 0.265 14.445 5.895 1.478 3.488 1.042 7.298-0.853 10.218 5.554 2.957 12.151 6.066 19.032 8.89l5.042-2.445-20.15-47.769zM205.293 410.5l19.809 46.84-4.739 2.256c12.852 3.924 25.097 5.365 31.998 0.474 0.777-0.549 1.213-1.365 1.82-1.99-18.406-14.217-33.211-32.907-42.499-54.536-2.123 2.256-4.246 4.588-6.388 6.957z" horiz-adv-x="564" />
<glyph unicode="&#xe645;" d="M150.035 187.127c0 14.214 13.515 20.706 20.636 22.161l1.665 0.14h27.814c5.204 0 9.696-1.861 13.012-5.414 5.974-6.365 5.68-15.627 5.569-17.461v-35.956h16.523v335.803h-235.252v-335.803h150.021v36.529zM190.077 474.648h33.144v-120.669h-33.144v120.669zM33.648 168.463h-25.239v13.794h25.253v-13.794zM33.648 192.219h-25.239v13.767h25.253v-13.767zM33.648 216.367h-25.239v13.823h25.253v-13.823zM33.648 239.298h-25.239v13.794h25.253v-13.794zM33.858 263.642h-25.463v13.822h25.463v-13.822zM101.627 159.020h-62.188v319.014h62.174v-319.014zM143.18 22.639h163.186v-48.226h-153.897zM239.841 310.020c0 0-1.721-38.25 1.749-57.249 3.47-18.944 48.239-88.099-31.647-130.015v60.286c0 0 0.91 13.906-10.199 13.906s-27.799 0-27.799 0-13.921-2.784-13.921-13.906c0-11.151 0-140.018 0-140.018h118.683c0 0 29.66 94.577 29.66 127.944-0.014-0.014 10.731 86.336-66.525 139.053z" horiz-adv-x="307" />
<glyph unicode="&#xe646;" d="M0 486.4v-512h730.831v512h-730.831zM705.242 0.543h-262.68v72.119h262.68v-72.119zM38.926 468.116h30.026v-54.968h-30.026v54.968zM90.565 468.116h30.026v-54.968h-30.026v54.968zM143.152 468.116h30.073v-54.968h-30.073v54.968zM193.012 468.116h30.119v-54.968h-30.119v54.968zM246.014 468.116h30.073v-55.453h-30.073v55.453zM712.593 265.188h-694.309v135.386h694.309v-135.386z" horiz-adv-x="731" />
<glyph unicode="&#xe647;" d="M391.813 486.4c38.226 0 69.169-33.188 69.169-74.039v-364.029c0-40.821-30.944-73.947-69.169-73.947h-322.673c-38.225 0.015-69.139 33.142-69.139 73.963v364.013c0 40.851 30.913 74.039 69.139 74.039h322.673zM391.813 449.365h-322.673c-19.113 0-34.562-16.579-34.562-37.005v-364.029c0-20.395 15.449-36.974 34.562-36.974h322.673c19.051 0 34.562 16.579 34.562 36.974v364.029c0 20.425-15.51 37.005-34.562 37.005v0zM87.061 422.772c-16.548 0-25.707-9.129-25.707-22.547v-88.557c0-8.641 3.908-18.548 20.425-18.548h299.652c16.487 0 18.136 10.228 18.136 16.212v88.786c0 12.854-4.824 24.654-21.311 24.654h-291.195zM87.061 276.74c-9.755 0-20.777 0.504-20.777-19.388v-68.696c0-15.647 4.198-23.25 18.517-23.25h108.326c20.303 0 18.457 13.007 18.457 20.93v69.231c0 16.578-5.542 21.174-17.525 21.174h-106.998zM280.632 274.587c-9.786 0-20.746-2.091-20.746-17.861v-190.014c0-21.738 4.137-23.494 18.426-23.494h114.082c10.762 0 12.793-0.977 12.793 15.479v190.518c0 20.99-5.511 25.372-17.525 25.372h-107.029zM85.993 149.544c-9.785 0-20.777 0.412-20.777-19.403v-68.696c0-15.678 4.198-23.311 18.456-23.311h108.418c20.304 0 18.426 13.053 18.426 20.99v69.2c0 16.609-5.542 21.235-17.48 21.235h-107.044zM290.921 381.035v-32.226c0-7.313-0.382-12.64-1.19-15.983-0.839-3.343-2.442-6.442-4.916-9.327-2.565-2.885-5.541-5.038-9.129-6.29-3.541-1.221-7.48-1.908-11.861-1.908-5.724 0-10.518 0.687-14.32 2.030-3.877 1.344-6.916 3.374-9.22 6.228-2.214 2.839-3.877 5.755-4.763 8.885-0.946 3.13-1.435 8.106-1.435 14.884v33.707c0 8.854 0.779 15.51 2.29 19.892 1.496 4.442 4.565 7.984 9.129 10.64 4.504 2.656 10.045 4 16.517 4 5.282 0 10.075-0.901 14.197-2.718 4.168-1.877 7.313-4.198 9.389-6.854 2.091-2.625 3.466-5.663 4.137-8.946 0.779-3.373 1.175-8.748 1.175-16.014zM277.792 390.424c0 5.572-0.87 9.099-2.748 10.473-1.877 1.404-6.137 2.122-12.945 2.122-6.686 0-11.144-0.718-13.205-2.183-2.153-1.527-3.251-4.977-3.251-10.412v-51.247c0-6.107 1.038-9.816 2.977-11.037 2.030-1.283 6.351-1.908 12.976-1.908 6.656 0 11.037 0.779 13.175 2.214 2.031 1.496 3.007 4.793 3.007 9.953v52.026zM374.394 381.035v-32.226c0-7.313-0.382-12.64-1.221-15.983-0.779-3.343-2.351-6.442-4.885-9.327-2.565-2.885-5.541-5.038-9.129-6.29-3.496-1.221-7.45-1.908-11.8-1.908-5.817 0-10.64 0.687-14.365 2.030-3.877 1.344-6.824 3.374-9.159 6.228-2.229 2.839-3.908 5.755-4.793 8.885-0.977 3.13-1.496 8.106-1.496 14.884v33.707c0 8.854 0.779 15.51 2.351 19.892 1.557 4.442 4.534 7.984 9.099 10.64s10.075 4 16.548 4c5.313 0 10.014-0.901 14.136-2.718 4.228-1.877 7.327-4.198 9.419-6.854 2.031-2.625 3.466-5.663 4.228-8.946 0.717-3.373 1.068-8.748 1.068-16.014zM361.281 390.424c0 5.572-0.901 9.099-2.779 10.473-1.786 1.404-6.168 2.122-12.915 2.122-6.656 0-11.067-0.718-13.205-2.183-2.091-1.527-3.221-4.977-3.221-10.412v-51.247c0-6.107 1.007-9.816 3.007-11.037 2-1.283 6.289-1.908 12.976-1.908 6.595 0 10.976 0.779 13.083 2.214 2.061 1.496 3.038 4.793 3.038 9.953v52.026zM182.716 209.951h-29.433v-30.12h-25.647v30.12h-29.844v25.616h29.844v29.28h25.647v-29.28h29.433v-25.616zM176.274 68.91h-86.496v32.791h86.496v-32.791zM379.356 174.107h-86.466v32.822h86.466v-32.822zM380.088 119.242h-86.435v32.837h86.435v-32.837z" horiz-adv-x="461" />
<glyph unicode="&#xe648;" d="M0 212.609h70.386v-238.154h-55.51zM578.019 268.729c0 120.030-97.641 217.671-217.708 217.671s-217.745-97.641-217.745-217.671c0-27.459 5.31-53.585 14.581-77.769-32.251 0-56.971 0-56.971 0v-173.171c0 0 138.015-43.334 186.752-43.334 0 0 121.806-5.459 203.017 89.296 0 0-3.571 10.51-9.418 23.555 58.71 39.079 97.493 105.745 97.493 181.423zM332.908 70.468c-38.135 5.31-72.865 21.075-101.027 44.704h44.056c25.053-13.767 53.788-21.649 84.375-21.649 10.195 0 20.094 1.091 29.808 2.702-14.784-12.416-33.287-23.37-57.212-25.757zM385.235 269.248h41.743v-24.757h-52.42v-14.21h52.419v-23.555h-52.419v-43.445h-27.921v43.445h-52.752v23.555h52.752v14.21h-52.752v24.757h41.688l-51.735 95.291h31.104l37.635-70.442c3.127-5.847 5.551-10.954 7.494-15.542 2.165 4.404 4.848 10.010 8.271 16.764l35.489 69.201h32.88l-51.476-95.272zM472.774 103.070c-4.070 7.587-8.752 14.969-13.748 20.927 46.166 31.548 76.492 84.522 76.492 144.732 0 96.753-78.416 175.206-175.206 175.206s-175.225-78.454-175.225-175.206c0-27.977 6.698-54.325 18.374-77.769-9.344 0-18.688 0-27.755 0-10.121 23.925-15.727 50.199-15.727 77.769 0 110.445 89.851 200.278 200.315 200.278 110.445 0 200.315-89.832 200.315-200.278 0.019-68.794-34.86-129.596-87.834-165.659z" horiz-adv-x="578" />
<glyph unicode="&#xe649;" d="M0 207.672h68.916v-233.218h-54.35zM549.357 273.147c0 117.614-95.62 213.253-213.199 213.253-117.542 0-213.181-95.639-213.181-213.253 0-30.853 6.757-60.112 18.624-86.653-25.364 0-43.499 0-43.499 0v-169.591c0 0 135.133-42.43 182.853-42.43 0 0 119.263-5.308 198.76 87.432 0 0-6.975 20.599-17.483 39.767 52.72 38.843 87.124 101.165 87.124 171.476zM304.725 268.853h-31.034v23.353h27.248c-1.522 9.276-2.826 19.185-2.826 29.077 0 34.965 24.53 59.369 59.641 59.369 18.406 0 29.005-4.856 33.733-7.718l1.123-0.707 0.2-30.581-5.036 2.79c-6.269 3.406-19.113 10.544-30.019 10.544-24.748 0-30.019-18.534-30.019-34.042 0-11.885 1.413-20.762 2.863-28.769h43.317v-23.352h-40.31c0.707-10.508 1.123-20.87-1.467-30.853-2.863-11.033-8.606-20.708-17.139-29.023h85.421v-26.215h-91.743c-2.717 2.192-6.123 3.714-10.471 3.714-3.116 0-12.827 0-26.252 0v14.82l1.359 0.707c20.074 9.983 32.556 28.697 32.556 48.861-0.018 6.105-0.145 11.341-1.142 18.027zM359.656 78.626c-7.718-0.96-15.49-1.594-23.498-1.594-41.542 0-80.022 13.135-111.799 35.238h52.883c18.425-6.757 38.209-10.616 58.898-10.616 24.53 0 47.81 5.236 68.935 14.512-11.413-11.957-25.889-27.411-45.419-37.538zM453.139 116.164c-5.779 7.954-12.192 14.221-18.787 16.45 44.332 30.998 73.392 82.341 73.392 140.514 0 94.823-76.815 171.584-171.584 171.584-94.715 0-171.53-76.743-171.53-171.584 0-31.632 8.732-61.181 23.715-86.653-9.512 0-18.877 0-27.81 0-12.99 26.179-20.472 55.546-20.472 86.653 0 108.212 87.975 196.169 196.115 196.169 108.175 0 196.133-87.957 196.133-196.169-0.018-64.206-31.233-121.184-79.171-156.965z" horiz-adv-x="549" />
<glyph unicode="&#xe64a;" d="M0 210.231h69.738v-235.776h-54.956zM538.818 270.829c0 118.868-96.703 215.571-215.534 215.571-118.887 0-215.608-96.703-215.608-215.571 0-29.053 5.826-56.751 16.322-82.048-15.094 0-24.822 0-24.822 0v-171.479c0 0 136.674-42.865 184.906-42.865 0 0 120.572-5.367 200.971 88.404 0 0-8.408 24.822-20.682 45.466 45.503 39.531 74.446 97.656 74.446 162.521zM124.931 270.829c0 109.343 88.936 198.315 198.352 198.315 109.342 0 198.315-88.972 198.315-198.315 0-59.041-26.122-111.981-67.192-148.306-7.163 8.518-14.985 14.123-22.971 12.658-0.147-0.036-0.293-0.11-0.421-0.147 39.971 31.801 65.69 80.748 65.69 135.776 0 95.842-77.67 173.494-173.421 173.494-95.842 0-173.494-77.633-173.494-173.494 0-29.658 7.511-57.612 20.645-82.048-9.69 0-19.033 0-27.551 0-11.394 25.078-17.952 52.812-17.952 82.067zM323.284 72.55c-17.567 0-34.53 2.51-50.742 6.796-17.347 7.089-36.637 18.099-58.179 34.421h35.666c22.257-10.368 47.005-16.395 73.237-16.395 34.237 0 66.075 10.094 92.947 27.221-14.123-14.105-33.303-38.322-62.832-49.514-9.8-1.521-19.82-2.528-30.097-2.528zM259.829 238.954h-18.575l0.036 24.894h16.486v6.869c-0.074 2.547 0 4.8 0.074 6.942h-16.487l-0.11 24.894h19.033c3.425 18.978 9.873 35.611 19.399 49.24 14.747 21.286 33.981 32.057 57.209 32.057 17.311 0 32.552-5.788 45.338-17.183 12.695-11.413 20.279-26.049 22.642-43.689l0.421-3.114h-28.412l-0.531 2.070c-2.931 11.944-7.95 21.25-14.82 27.734-6.87 6.338-14.875 9.379-24.656 9.379-15.131 0-27.111-7.693-36.454-23.612-5.404-9.233-9.342-20.242-11.981-32.882h72.944l0.074-24.894h-75.417l-0.074-13.812h66.478l0.074-24.894h-63.858c2.363-12.493 6.301-23.393 11.779-32.772 9.342-15.846 21.322-23.613 36.563-23.613 9.8 0 18.135 3.26 24.932 9.727 6.979 6.539 12.017 16.248 14.875 28.522l0.458 2.18h27.935l-0.366-3.224c-1.997-17.824-9.489-32.772-22.183-44.404-12.731-11.596-28.119-17.494-45.796-17.494-5.33 0-10.405 0.568-15.277 1.538 0 5.477 0 9.306 0 9.306s-4.048 20.077-20.151 20.077c-2.894 0-11.339 0-23.228 0-9.012 13.483-15.241 30.298-18.373 50.156z" horiz-adv-x="539" />
</font>
</defs>
</svg>
